[ Сегодня на трекере фрилич! Идет свободное скачивание без начисления Download ]

Секретные территории. НЛО. Шифровка со дна океана (эфир 08.11.3013) (РЕН ТВ) / Сезон: Серии: 116 (РЕН ТВ) [2013 г., Документальный, SATRip]

 

Создавать темы 11-Ноя-2013 17:24

-Секретные территории. НЛО. Шифровка со дна океана (эфир 08.11.3013) (РЕН ТВ)-- Производство: Россия
Жанр: Документальный
Год выпуска: 2013 г.
Продолжительность: 00:47:39
Российская премьера: 08.11.3013
Перевод: Не требуется
Режиссер: РЕН ТВ-Описание: Байкал самое глубокое озеро на земной планете. Здесь на дне во время погружение на батискафе "Мир" исследователи обнаружили несколько желтых желе образных шаров. Небольшие всего около трех сантиметров в диаметре несколько штук с трудом удалось захватить манипулятором. Ученных ждала настоящая сенсация они столкнулись с неизвестной формой жизни. Оказалось микроорганизмов внутри каждого шара очень много. Что за существа живут в желатиновой оболочке под многометровой толщей воды.
В выпуске:
О подводном мире известно меньше, чем о космосе. Но легенды о загадочных существах, обитающих в мировом океане, есть практически у всех народов. Кто же населяет морские глубины?-Качество видео: SATRip
Контейнер: AVI
Видео кодек: XviD
Аудио кодек: MP3
Видео: 704x416 (1.69:1), 25 fps, XviD build 50 ~1362 kbps avg, 0.19 bit/pixel
Аудио: 48 kHz, MPEG Layer 3, 2 ch, ~128.00 kbps avg
Cубтитры: отсутствуют

Media Info

Общее
Полное имя : D:\116-NLO-Shifrovka_so_dna_okeana-08.11.2013.avi
Формат : AVI
Формат/Информация : Audio Video Interleave
Размер файла : 512 Мбайт
Продолжительность : 47 м.
Общий поток : 1501 Кбит/сек
Программа кодирования : VirtualDubMod 1.6.0.0 SURROUND (build 2560/release)
Библиотека кодирования : VirtualDubMod build 2560/release
Видео
Идентификатор : 0
Формат : MPEG-4 Visual
Профиль формата : Advanced [email protected]
Параметр BVOP формата : 2
Параметр QPel формата : Нет
Параметр GMC формата : Без точки перехода
Параметр матрицы формата : Default (H.263)
Идентификатор кодека : XVID
Идентификатор кодека/Подсказка : XviD
Продолжительность : 47 м.
Битрейт : 1363 Кбит/сек
Ширина : 704 пикселя
Высота : 416 пикселей
Соотношение сторон : 5:4
Соотношение сторон в оригинале : 1,692
Частота кадров : 25,000 кадров/сек
Цветовое пространство : YUV
Субдискретизация насыщенности : 4:2:0
Битовая глубина : 8 бит
Тип развёртки : Прогрессивная
Метод сжатия : С потерями
Бит/(Пиксели*Кадры) : 0.186
Размер потока : 465 Мбайт (91%)
Библиотека кодирования : XviD 1.2.1 (UTC 2008-12-04)
Аудио
Идентификатор : 1
Формат : MPEG Audio
Версия формата : Version 1
Профиль формата : Layer 3
Режим : Joint stereo
Расширение режима : MS Stereo
Идентификатор кодека : 55
Идентификатор кодека/Подсказка : MP3
Продолжительность : 47 м.
Вид битрейта : Постоянный
Битрейт : 128 Кбит/сек
Каналы : 2 канала
Частота : 48,0 КГц
Метод сжатия : С потерями
Размер потока : 43,6 Мбайт (9%)
Выравнивание : Разделение по промежуткам
Продолжительность промежутка : 40 мс. (1,00 видеокадр)
Время предзагрузки промежутка : 500 мс.

Скриншот c названием фильма

Скриншоты

Яндекс.Метрика
Рейтинг@Mail.ru