[ Сегодня на трекере фрилич! Идет свободное скачивание без начисления Download ]

Она не только болтает, она всех мочит / Elle cause plus, elle flingue (1972) DVDRip [H.264]

 

Создавать темы 04-Окт-2013 07:36

-Она не только болтает, она всех мочит / Elle cause plus, elle flingue (1972) DVDRip- Год выпуска: 1972
Производство: Франция, Италия
Альтернативное название: Болтает, крадет... иногда убивает
Жанр: Комедия
Режиссер: Мишель Одиар
Актеры: Анни Жирардо, Бернар Блие, Морис Биро, Роже Карель, Жан Карме, Дарри Коул, Мишель Галабрю, Андре Пусс, Катрин Сами, Чарльз Саутвуд ...
Описание фильма:
История гангстерши, полная хитросплетений и неожиданных событий.

Дата мировой премьеры: 23 августа 1972 (Франция)
Продолжительность: 01:23:11
Качество видео: DVDRip
Перевод: Двуголосый закадровый, профессиональный
Субтитры: отсутствуют
Видеокодек: MPEG-4 AVC/H.264
Битрейт видео: ~ 1850 Кбит/сек
Размер кадра: 720 x 440 (1.636) at 25.000 fps
Аудио #1: AC3 194 Кбит/сек (2ch), 48,0 КГц [Русский, DVO]
Аудио #2: AC3 448 Кбит/сек (5ch), 48,0 КГц [Французский]

MediaInfo:

Уникальный идентификатор                 : 212650609307297447084047655060638977023 (0x9FFB04827698DED0953C11195852CBFF)
Полное имя                               : G:\Фильмы 2013\Она не только болтает, она всех мочит  Elle cause plus, elle flingue (1972) DVDRip\Elle.cause.plus.elle.flingue .1972.x264.DVDRip.NNM-CLUB-.mkv
Формат                                   : Matroska
Версия формата                           : Version 2
Размер файла                             : 1,45 Гбайт
Продолжительность                        : 1 ч. 23 м.
Общий поток                              : 2492 Кбит/сек
Название фильма                          : Elle.cause.plus.elle.flingue .1972.x264.DVDRip.NNM-CLUB
Дата кодирования                         : UTC 2013-10-02 14:23:18
Программа кодирования                    : mkvmerge v2.9.9 ('Tutu') built on Nov 25 2009 21:13:32
Библиотека кодирования                   : libebml v0.7.9 + libmatroska v0.8.1
Видео
Идентификатор                            : 1
Формат                                   : AVC
Формат/Информация                        : Advanced Video Codec
Профиль формата                          : [url=mailto:[email protected]][email protected][/url]
Параметр CABAC формата                   : Да
Параметр ReFrames формата                : 5 кадров
Идентификатор кодека                     : V_MPEG4/ISO/AVC
Продолжительность                        : 1 ч. 23 м.
Битрейт                                  : 1850 Кбит/сек
Ширина                                   : 720 пикселей
Высота                                   : 440 пикселей
Соотношение сторон                       : 16:10
Режим частоты кадров                     : Постоянный
Частота кадров                           : 25,000 кадров/сек
Цветовое пространство                    : YUV
Субдискретизация насыщенности            : 4:2:0
Битовая глубина                          : 8 бит
Тип развёртки                            : Прогрессивная
Бит/(Пиксели*Кадры)                      : 0.234
Размер потока                            : 1,05 Гбайт (72%)
Заголовок                                : -=Release for NNM-CLUB.RU=-
Библиотека кодирования                   : x264 core 125 r2208 d9d2288
Настройки программы                      : cabac=1 / ref=5 / deblock=1:-2:-2 / analyse=0x3:0x131 / me=umh / subme=9 / psy=1 / psy_rd=1.00:0.15 / mixed_ref=1 / me_range=32 / chroma_me=1 / trellis=2 / 8x8dct=1 / cqm=0 / deadzone=21,11 / fast_pskip=0 / chroma_qp_offset=-3 / threads=12 / lookahead_threads=2 / sliced_threads=0 / nr=0 / decimate=1 / interlaced=0 / bluray_compat=0 / constrained_intra=0 / bframes=5 / b_pyramid=2 / b_adapt=0 / b_bias=0 / direct=1 / weightb=1 / open_gop=0 / weightp=2 / keyint=250 / keyint_min=25 / scenecut=40 / intra_refresh=0 / rc_lookahead=50 / rc=2pass / mbtree=1 / bitrate=1850 / ratetol=1.0 / qcomp=0.60 / qpmin=0 / qpmax=69 / qpstep=4 / cplxblur=20.0 / qblur=0.5 / ip_ratio=1.40 / aq=1:1.00
Default                                  : Нет
Forced                                   : Нет
Аудио #1
Идентификатор                            : 2
Формат                                   : AC-3
Формат/Информация                        : Audio Coding 3
Расширение режима                        : CM (complete main)
Параметр Endianness формата              : Big
Идентификатор кодека                     : A_AC3
Продолжительность                        : 1 ч. 23 м.
Вид битрейта                             : Постоянный
Битрейт                                  : 192 Кбит/сек
Каналы                                   : 2 канала
Расположение каналов                     : Front: L R
Частота                                  : 48,0 КГц
Битовая глубина                          : 16 бит
Метод сжатия                             : С потерями
Размер потока                            : 114 Мбайт (8%)
Заголовок                                : AC3.192.Kbps (2ch) Russian (Дубляж Line)
Язык                                     : Russian
Default                                  : Да
Forced                                   : Нет
Аудио #2
Идентификатор                            : 3
Формат                                   : AC-3
Формат/Информация                        : Audio Coding 3
Расширение режима                        : CM (complete main)
Параметр Endianness формата              : Big
Идентификатор кодека                     : A_AC3
Продолжительность                        : 1 ч. 23 м.
Вид битрейта                             : Постоянный
Битрейт                                  : 448 Кбит/сек
Каналы                                   : 5 каналов
Расположение каналов                     : Front: L C R, Side: L R
Частота                                  : 48,0 КГц
Битовая глубина                          : 16 бит
Метод сжатия                             : С потерями
Размер потока                            : 266 Мбайт (18%)
Заголовок                                : AC3.448.Kbps (5ch) French
Язык                                     : French
Default                                  : Нет
Forced                                   : Нет
Скриншоты:


Время раздачи: 24/7 (до 10 скачавших)
Яндекс.Метрика
Рейтинг@Mail.ru