[ Сегодня на трекере фрилич! Идет свободное скачивание без начисления Download ]

NG: Суперсооружения: Мегазаводы. BMW X3 / Megafactories: BMW X3 [2011 г., Документальный, научно-познавательный, техника, строительство, HDTVRip]

 

Создавать темы 04-Окт-2013 07:29

NG: Суперсооружения: Мегазаводы. BMW X3 / Megafactories: BMW X3
Год выпуска: 2011 г.
Страна: США, National Geographic Channel
Жанр: Документальный, научно-познавательный, техника, строительство
Продолжительность: 00:45:00
Перевод: Одноголосый закадровый
Cубтитры: нет
Описание: BMW X3 — люксовый компактный кроссовер немецкой компании BMW. X3 первого поколения разработан и выпускался совместно с компанией Magna Steyr на заводе в Граце, Австрия. Второе поколение кроссовера было представлено в июле 2010 года, производство автомобиля началось 1 сентября 2010 года. По состоянию на июль 2010 года во всём мире было продано порядка 600 000 экземпляров BMW X3. Модель "Х3" - это и вседорожник, и спортивный автомобиль. Узнайте, почему компания "БМВ" перевела его производство из Европы в Южную Каролину.
Качество видео: HDTVRip
Формат видео: AVI
Видео кодек: XviD
Аудио кодек: AC3
Видео: 720х400 25.00fps 1800kbps
Аудио: AC3 2ch, 48kHz, 192 kbps

Скриншоты


MediaInfo:

Формат : AVI
Формат/Информация : Audio Video Interleave
Размер файла : 644 Мбайт
Продолжительность : 45 м.
Общий поток : 2000 Кбит/сек
Программа кодирования : VirtualDubMod 1.5.10.3 | www.virtualdub-fr.org || (build 2550/release)
Библиотека кодирования : VirtualDubMod build 2550/release
Видео
Идентификатор : 0
Формат : MPEG-4 Visual
Профиль формата : Advanced [email protected]
Параметр BVOP формата : 2
Параметр QPel формата : Нет
Параметр GMC формата : Без точки перехода
Параметр матрицы формата : Default (H.263)
Идентификатор кодека : XVID
Идентификатор кодека/Подсказка : XviD
Продолжительность : 45 м.
Битрейт : 1799 Кбит/сек
Ширина : 720 пикселей
Высота : 400 пикселей
Соотношение сторон : 16:9
Частота кадров : 25,000 кадров/сек
Цветовое пространство : YUV
Субдискретизация насыщенности : 4:2:0
Битовая глубина : 8 бит
Тип развёртки : Прогрессивная
Метод сжатия : С потерями
Бит/(Пиксели*Кадры) : 0.250
Размер потока : 579 Мбайт (90%)
Библиотека кодирования : XviD 1.2.1 (UTC 2008-12-04)
Аудио
Идентификатор : 1
Формат : AC-3
Формат/Информация : Audio Coding 3
Расширение режима : CM (complete main)
Параметр Endianness формата : Big
Идентификатор кодека : 2000
Продолжительность : 45 м.
Вид битрейта : Постоянный
Битрейт : 192 Кбит/сек
Каналы : 2 канала
Расположение каналов : Front: L R
Частота : 48,0 КГц
Битовая глубина : 16 бит
Метод сжатия : С потерями
Размер потока : 61,8 Мбайт (10%)
Выравнивание : Разделение по промежуткам
Продолжительность промежутка : 40 мс. (1,00 видеокадр)
Время предзагрузки промежутка : 500 мс.
Яндекс.Метрика
Рейтинг@Mail.ru