Влюбленный скорпион / Alacrán enamorado (Сантьяго Санноу) [2013, триллер, драма, мелодрама, HDRip-AVC] | Лицензия

 

Создавать темы 10-Ноя-2013 19:16

Информация о фильме
Название: Влюбленный скорпион
Оригинальное название: Alacrán enamorado
Год выхода: 2013
Жанр: триллер, драма, мелодрама
Режиссер: Сантьяго Санноу
В ролях: Алекс Гонсалес, Джудит Диакате, Карлос Бардем, Мигель Анхель Сильвестре, Хавьер Бардем, Элио Сагуэс, Хавьер Мансебо, Досель Камана Гомбе, Карлос Каниовски, Малена Гутьеррес

О фильме: Хулиан, член неонацистской группировки, цель которой — зачистка улиц от «черных» и арабов, начинает тренироваться у Карломонте, в прошлом прославленного боксера, а ныне — пьяницы, разрушившего свою жизнь. Но рядом с этим человеком, жестким и упрямым, Хулиан постепенно начинает меняться. Он отдаляется от бывших дружков, влюбляется в Алису, девушку, работающую в спортзале, у него появляется новый приятель — его чернокожий спарринг-партнер Фрэнки. Новая жизнь ему нравится больше, чем прежняя. Но главарь неонацистов Луис считает, что Хулиан предатель, а это значит, что он должен понести жестокое наказание.

Выпущено: Испания / Morena Films
Продолжительность: 01:40:05
Озвучивание: Дублированное [лицензия]
Файл
Формат: MKV
Качество: HDRip-AVC [Рип с BDRip 720p]
Видео: 1690 kb/s, 1024x432
Аудио: AC3, 384 kb/s (6 ch)
Дополнительно: Сохранены чаптеры как на Bluray

MI

Format : Matroska
Format version : Version 4 / Version 2
File size : 1.45 GiB
Duration : 1h 40mn
Overall bit rate : 2 075 Kbps
Encoded date : UTC 2013-11-10 16:18:13
Writing application : mkvmerge v6.1.0 ('Old Devil') built on Mar 4 2013 09:10:42
Writing library : libebml v1.3.0 + libmatroska v1.4.0
Video
ID : 1
Format : AVC
Format/Info : Advanced Video Codec
Format profile : [email protected]
Format settings, CABAC : Yes
Format settings, ReFrames : 10 frames
Codec ID : V_MPEG4/ISO/AVC
Duration : 1h 40mn
Bit rate : 1 690 Kbps
Width : 1 024 pixels
Height : 432 pixels
Display aspect ratio : 2.40:1
Frame rate : 24.000 fps
Color space : YUV
Chroma subsampling : 4:2:0
Bit depth : 8 bits
Scan type : Progressive
Bits/(Pixel*Frame) : 0.159
Stream size : 1.15 GiB (80%)
Title : Rip by 03nazar03
Writing library : x264 core 130 r2273 b3065e6
Encoding settings : cabac=1 / ref=10 / deblock=1:-3:-3 / analyse=0x3:0x133 / me=umh / subme=10 / psy=1 / psy_rd=1.00:0.20 / mixed_ref=1 / me_range=32 / chroma_me=1 / trellis=2 / 8x8dct=1 / cqm=0 / deadzone=21,11 / fast_pskip=0 / chroma_qp_offset=-3 / threads=6 / lookahead_threads=1 / sliced_threads=0 / nr=0 / decimate=0 / interlaced=0 / bluray_compat=0 / constrained_intra=0 / bframes=8 / b_pyramid=2 / b_adapt=2 / b_bias=0 / direct=3 / weightb=1 / open_gop=0 / weightp=2 / keyint=250 / keyint_min=23 / scenecut=40 / intra_refresh=0 / rc_lookahead=60 / rc=2pass / mbtree=1 / bitrate=1690 / ratetol=1.0 / qcomp=0.60 / qpmin=0 / qpmax=69 / qpstep=4 / cplxblur=20.0 / qblur=0.5 / ip_ratio=1.40 / aq=1:1.00
Language : Spanish
Default : Yes
Forced : No
Audio
ID : 2
Format : AC-3
Format/Info : Audio Coding 3
Mode extension : CM (complete main)
Format settings, Endianness : Big
Codec ID : A_AC3
Duration : 1h 40mn
Bit rate mode : Constant
Bit rate : 384 Kbps
Channel(s) : 6 channels
Channel positions : Front: L C R, Side: L R, LFE
Sampling rate : 48.0 KHz
Bit depth : 16 bits
Compression mode : Lossy
Stream size : 275 MiB (19%)
Language : Russian
Default : Yes
Forced : No
Menu
00:00:00.000 : es:1
00:05:30.667 : es:2
00:14:46.417 : es:3
00:21:53.583 : es:4
00:30:45.375 : es:5
00:39:33.750 : es:6
00:47:22.500 : es:7
00:56:20.708 : es:8
01:03:51.625 : es:9
01:10:33.583 : es:10
01:19:55.250 : es:11

Скриншоты


_________________
Подпись отключена за нарушение правил форума

Создавать темы 26-Янв-2016 23:22 (спустя 2 года 2 месяца)

Топик был перенесен из форума Зарубежные Новинки (HD*Rip/LQ, DVDRip) в форум Зарубежные Фильмы (HD*Rip/LQ, DVDRip, SATRip, VHSRip)
T_O_M
Яндекс.Метрика
Рейтинг@Mail.ru