Незнакомец / The Prowler (1981) BDRip 1080p by msltel | P, A

 

Создавать темы 10-Ноя-2013 15:15

Название: Незнакомец
Оригинальное название: The Prowler
Год выпуска: 1981
Жанр: Ужасы, триллер, детектив
Выпущено: США, Graduation
Режиссер: Джозеф Зито
В ролях: Вики Даусон, Кристофер Гутмэн, Лоуренс Тирни, Фарли Грейнджер, Синди Вентрауб, Лиза Дансхет, Дэвид Седерхолм, Билл Нуннери, Том Брэй, Дайан Роуд, Брайан Инглунд, Донна Дэвис, Карлтон Карпентер, Джой Глаккум, Тимоти Уорер, Джон Сайц, Билл Хью Коллинз, Дэн Лоунсбери, Дуглас Стивенсон, Сьюзэн Монтс, Питер Джулиано, Джонатан Сачар
О фильме: В 1945 году, после окончания второй мировой, на родину возвращаются ветераны, но одного из них вероломно бросила его девушка, когда тот был на фронте, о чём оная девушка даже не побоялась написать ему в письме. В тихом американском городке проходит выпускной бал, но для этой девушки и его нового парня он становится последним, ибо незнакомец в армейском обмундировании насаживает влюблённую парочку на вилы, после чего романтично кладёт в остывающую руку девушки красную розу... Прошло 35 лет, в течение которых в память о тех ужасных событиях в городке выпускные балы не проводились. Но в этом году муниципалитет решил нарушить эту традицию и порадовать выпускников школы первым за 35 лет выпускным балом. Однако сделано это было опрометчиво, ибо «незнакомец» и не думал уходить из города, и в эту ночь он снова выйдет убивать…
Качество: BDRip 1080p
Размер: 13.8 ГБ
Продолжительность: 01:28:16
Видео: MPEG-4 AVC, 19.8 Mбит/с, 1920x1036
Аудио 1: русский, 48 kHz, AC3, 2 ch, 192 kbps avg, [Профессиональный многоголосый, Селена Интернешнл]
Аудио 2: русский, 48 kHz, AC3, 6 ch, 448 kbps avg, [Авторский, Максим Логинов]
Аудио 3: английский, 48 kHz, DTS, 6 ch, 1509 kbps avg, [Оригинал]
Субтитры: английские

MediaInfo + Лог х264

Общее
Уникальный идентификатор : 207890378522965385897063368022234789548 (0x9C663B03038B4BEF8A43057A307076AC)
Полное имя : E:VideoNeznakomec.1981.x264.BDRip.1080p.mkv
Формат : Matroska
Версия формата : Version 4 / Version 2
Размер файла : 13,8 Гбайт
Продолжительность : 1 ч. 28 м.
Общий поток : 22,4 Мбит/сек
Название фильма : Незнакомец / The Prowler / 1981 / BDRip -- STarankov
Дата кодирования : UTC 2013-11-10 07:11:44
Программа кодирования : mkvmerge v6.4.1 ('Omega Point') built on Sep 16 2013 22:05:10
Библиотека кодирования : libebml v1.3.0 + libmatroska v1.4.1
Видео
Идентификатор : 1
Формат : AVC
Формат/Информация : Advanced Video Codec
Профиль формата : [email protected]
Параметр CABAC формата : Да
Параметр ReFrames формата : 4 кадра
Идентификатор кодека : V_MPEG4/ISO/AVC
Продолжительность : 1 ч. 28 м.
Битрейт : 19,8 Мбит/сек
Ширина : 1920 пикселей
Высота : 1036 пикселей
Соотношение сторон : 1,85:1
Режим частоты кадров : Постоянный
Частота кадров : 23,976 кадра/сек
Цветовое пространство : YUV
Субдискретизация насыщенности : 4:2:0
Битовая глубина : 8 бит
Тип развёртки : Прогрессивная
Бит/(Пиксели*Кадры) : 0.415
Размер потока : 12,2 Гбайт (88%)
Библиотека кодирования : x264 core 133 r2334 a3ac64b
Настройки программы : cabac=1 / ref=4 / deblock=1:-3:-3 / analyse=0x3:0x113 / me=umh / subme=10 / psy=1 / psy_rd=1.00:0.15 / mixed_ref=1 / me_range=24 / chroma_me=1 / trellis=2 / 8x8dct=1 / cqm=0 / deadzone=21,11 / fast_pskip=0 / chroma_qp_offset=-3 / threads=6 / lookahead_threads=1 / sliced_threads=0 / nr=0 / decimate=1 / interlaced=0 / bluray_compat=0 / constrained_intra=0 / bframes=8 / b_pyramid=2 / b_adapt=2 / b_bias=0 / direct=1 / weightb=1 / open_gop=0 / weightp=2 / keyint=230 / keyint_min=23 / scenecut=40 / intra_refresh=0 / rc_lookahead=40 / rc=crf / mbtree=0 / crf=20.0 / qcomp=0.60 / qpmin=0 / qpmax=69 / qpstep=4 / vbv_maxrate=50000 / vbv_bufsize=62500 / crf_max=0.0 / nal_hrd=none / ip_ratio=1.40 / pb_ratio=1.30 / aq=1:1.00
Язык : English
Default : Да
Forced : Нет
Аудио #1
Идентификатор : 2
Формат : AC-3
Формат/Информация : Audio Coding 3
Расширение режима : CM (complete main)
Параметр Endianness формата : Big
Идентификатор кодека : A_AC3
Продолжительность : 1 ч. 28 м.
Вид битрейта : Постоянный
Битрейт : 192 Кбит/сек
Каналы : 2 канала
Расположение каналов : Front: L R
Частота : 48,0 КГц
Битовая глубина : 16 бит
Метод сжатия : С потерями
Размер потока : 121 Мбайт (1%)
Заголовок : MVO (Селена Интернешнл)
Язык : Russian
Default : Да
Forced : Нет
Аудио #2
Идентификатор : 3
Формат : AC-3
Формат/Информация : Audio Coding 3
Расширение режима : CM (complete main)
Параметр Endianness формата : Big
Идентификатор кодека : A_AC3
Продолжительность : 1 ч. 28 м.
Вид битрейта : Постоянный
Битрейт : 448 Кбит/сек
Каналы : 6 каналов
Расположение каналов : Front: L C R, Side: L R, LFE
Частота : 48,0 КГц
Битовая глубина : 16 бит
Метод сжатия : С потерями
Размер потока : 283 Мбайт (2%)
Заголовок : AVO (Максим Логинов)
Язык : Russian
Default : Нет
Forced : Нет
Аудио #3
Идентификатор : 4
Формат : DTS
Формат/Информация : Digital Theater Systems
Режим : 16
Параметр Endianness формата : Big
Идентификатор кодека : A_DTS
Продолжительность : 1 ч. 28 м.
Вид битрейта : Постоянный
Битрейт : 1509 Кбит/сек
Каналы : 6 каналов
Расположение каналов : Front: L C R, Side: L R, LFE
Частота : 48,0 КГц
Битовая глубина : 16 бит
Метод сжатия : С потерями
Размер потока : 953 Мбайт (7%)
Заголовок : Original
Язык : English
Default : Нет
Forced : Нет
Текст
Идентификатор : 5
Формат : UTF-8
Идентификатор кодека : S_TEXT/UTF8
Идентификатор кодека/Информация : UTF-8 Plain Text
Заголовок : английский
Язык : English
Default : Нет
Forced : Нет
---[Information] [09.11.2013 15:17:35] avs [info]: 1920x1036p 1:1 @ 24000/1001 fps (cfr)
---[Information] [09.11.2013 15:17:35] x264 [info]: using SAR=1/1
---[Information] [09.11.2013 15:17:35] x264 [info]: using cpu capabilities: MMX2 SSE2Fast SSSE3 SSE4.2
---[Information] [09.11.2013 15:17:35] x264 [info]: profile High, level 4.1
---[Information] [10.11.2013 12:49:50] x264 [info]: frame I:616 Avg QP:20.45 size:187949
---[Information] [10.11.2013 12:49:50] x264 [info]: frame P:21909 Avg QP:21.20 size:139474
---[Information] [10.11.2013 12:49:50] x264 [info]: frame B:104467 Avg QP:23.52 size: 97849
---[Information] [10.11.2013 12:49:50] x264 [info]: consecutive B-frames: 0.6% 0.3% 1.3% 3.7% 8.4% 75.1% 5.6% 3.6% 1.4%
---[Information] [10.11.2013 12:49:50] x264 [info]: mb I I16..4: 1.5% 95.6% 2.9%
---[Information] [10.11.2013 12:49:50] x264 [info]: mb P I16..4: 1.0% 61.0% 1.1% P16..4: 17.8% 14.6% 4.5% 0.0% 0.0% skip: 0.1%
---[Information] [10.11.2013 12:49:50] x264 [info]: mb B I16..4: 0.2% 22.0% 0.2% B16..8: 33.5% 19.0% 4.2% direct:16.4% skip: 4.4% L0:44.4% L1:40.4% BI:15.2%
---[Information] [10.11.2013 12:49:50] x264 [info]: 8x8 transform intra:97.7% inter:72.9%
---[Information] [10.11.2013 12:49:50] x264 [info]: coded y,uvDC,uvAC intra: 97.5% 90.3% 75.8% inter: 74.5% 72.2% 30.9%
---[Information] [10.11.2013 12:49:50] x264 [info]: i16 v,h,dc,p: 50% 18% 18% 14%
---[Information] [10.11.2013 12:49:50] x264 [info]: i8 v,h,dc,ddl,ddr,vr,hd,vl,hu: 10% 6% 11% 10% 11% 13% 10% 14% 13%
---[Information] [10.11.2013 12:49:50] x264 [info]: i4 v,h,dc,ddl,ddr,vr,hd,vl,hu: 15% 7% 8% 9% 12% 15% 11% 12% 11%
---[Information] [10.11.2013 12:49:50] x264 [info]: i8c dc,h,v,p: 57% 14% 17% 13%
---[Information] [10.11.2013 12:49:50] x264 [info]: Weighted P-Frames: Y:15.4% UV:10.0%
---[Information] [10.11.2013 12:49:50] x264 [info]: ref P L0: 40.4% 10.1% 28.8% 17.9% 2.8% 0.0%
---[Information] [10.11.2013 12:49:50] x264 [info]: ref B L0: 79.6% 16.6% 3.8%
---[Information] [10.11.2013 12:49:50] x264 [info]: ref B L1: 87.0% 13.0%
---[Information] [10.11.2013 12:49:50] x264 [info]: kb/s:20229.46
---[Information] [10.11.2013 12:49:50] encoded 126992 frames, 1.64 fps, 20229.47 kb/s
--[Information] [10.11.2013 12:49:52] Final statistics
---[Information] [10.11.2013 12:49:52] Constant Quality Mode: Quality 20 computed...
---[Information] [10.11.2013 12:49:52] Video Bitrate Obtained (approximate): 20231 kbit/s
--[Information] [10.11.2013 12:49:52] MediaInfo
---[Information] File: E:RipNeznakomec.1981.x264.BDRipNeznakomec.1981.x264.BDRip.1080p.mkv

Скриншоты

Яндекс.Метрика
Рейтинг@Mail.ru