Дом. История путешествия / Home (Ян Артус Бертранд / Yann Arthus-Bertrand) [2009 г., документальный, драма, семейный, BDRip-AVC] Dub (студия «Омикрон») + Sub (Rus)

 

Создавать темы 30-Сен-2014 02:22

-Дом. История путешествия / Home-«A Stunning Visual Portrayal of Earth»- Производство: Франция, Elzévir Films, EuropaCorp, France 2 (FR2)
Жанр: документальный, драма, семейный
Год выпуска: 2009 г.
Продолжительность: 01:58:25
Мировая премьера: 3 июня 2009
Российская премьера: 5 июня 2009
Дата выхода DVD: 22 февраля 2011, «Кармен Видео»
Перевод: Профессиональный (полное дублирование) [студия «Омикрон»]-Режиссер: Ян Артус Бертранд / Yann Arthus-Bertrand
В ролях: Ян Артус Бертранд, Гленн Клоуз, Жак Гамблен-Описание: Фильм демонстрирует нам красоту планеты и последствия разрушений, нанесенных деятельностью человека. Незаживающие шрамы, нанесенные Земле промышленными производствами, последствия войн, экологических катастроф, раскрывают зрителю реальную ситуацию на планете.-Качество видео: BDRip-AVC
Контейнер: MKV
Видео кодек: H.264
Аудио кодек: AC3
Видео: 992x560 (16:9), 2 895 Kbps, 23.976 fps, 0.217 bit/pix
Аудио: 448 Kbps, 6 ch, 48.0 KHz
Cубтитры: Русские
Формат субтитров: softsub (SRT)

Media Info

General
Unique ID : 241576191352218755747751199737890808797 (0xB5BDE1CFD6DBBCC2A6335567590523DD)
Complete name : C:\Users\Ivan\Desktop\Home.2009.D.BDRip-AVC.mkv
Format : Matroska
Format version : Version 4 / Version 2
File size : 2.77 GiB
Duration : 1h 58mn
Overall bit rate : 3 345 Kbps
Encoded date : UTC 2014-09-29 05:52:14
Writing application : mkvmerge v7.2.0 ('On Every Street') 64bit built on Sep 13 2014 15:52:10
Writing library : libebml v1.3.0 + libmatroska v1.4.1
Video
ID : 1
Format : AVC
Format/Info : Advanced Video Codec
Format profile : [email protected]
Format settings, CABAC : Yes
Format settings, ReFrames : 9 frames
Codec ID : V_MPEG4/ISO/AVC
Duration : 1h 58mn
Bit rate : 2 895 Kbps
Width : 992 pixels
Height : 560 pixels
Display aspect ratio : 16:9
Frame rate mode : Constant
Frame rate : 23.976 fps
Color space : YUV
Chroma subsampling : 4:2:0
Bit depth : 8 bits
Scan type : Progressive
Bits/(Pixel*Frame) : 0.217
Stream size : 2.34 GiB (85%)
Title : Дом. История путешествия
Writing library : x264 core 130 r2273 b3065e6
Encoding settings : cabac=1 / ref=9 / deblock=1:-3:-3 / analyse=0x3:0x133 / me=umh / subme=11 / psy=1 / psy_rd=1.00:0.15 / mixed_ref=0 / me_range=64 / chroma_me=1 / trellis=2 / 8x8dct=1 / cqm=0 / deadzone=21,11 / fast_pskip=0 / chroma_qp_offset=-3 / threads=12 / lookahead_threads=3 / sliced_threads=0 / nr=0 / decimate=1 / interlaced=0 / bluray_compat=0 / constrained_intra=0 / bframes=10 / b_pyramid=2 / b_adapt=2 / b_bias=0 / direct=3 / weightb=1 / open_gop=0 / weightp=2 / keyint=250 / keyint_min=23 / scenecut=40 / intra_refresh=0 / rc_lookahead=50 / rc=2pass / mbtree=1 / bitrate=2895 / ratetol=1.0 / qcomp=0.60 / qpmin=0 / qpmax=69 / qpstep=4 / cplxblur=20.0 / qblur=0.5 / ip_ratio=1.40 / aq=1:1.00
Language : English
Default : Yes
Forced : No
Audio
ID : 2
Format : AC-3
Format/Info : Audio Coding 3
Mode extension : CM (complete main)
Format settings, Endianness : Big
Codec ID : A_AC3
Duration : 1h 58mn
Bit rate mode : Constant
Bit rate : 448 Kbps
Channel(s) : 6 channels
Channel positions : Front: L C R, Side: L R, LFE
Sampling rate : 48.0 KHz
Bit depth : 16 bits
Compression mode : Lossy
Stream size : 379 MiB (13%)
Title : Dub (студия «Омикрон»)
Language : Russian
Default : Yes
Forced : No
Text
ID : 3
Format : UTF-8
Codec ID : S_TEXT/UTF8
Codec ID/Info : UTF-8 Plain Text
Title : Full
Language : Russian
Default : No
Forced : No

log x.264

avs [info]: 992x560p 1:1 @ 2500000/104271 fps (cfr)
x264 [info]: using SAR=1/1
x264 [info]: using cpu capabilities: MMX2 SSE2Fast SSSE3 SSE4.2 AVX
x264 [info]: profile High, level 4.1
x264 [info]: frame I:870 Avg QP:16.51 size:163688
x264 [info]: frame P:38165 Avg QP:19.54 size: 47210
x264 [info]: frame B:131317 Avg QP:24.13 size: 4773
x264 [info]: consecutive B-frames: 2.7% 2.6% 8.4% 20.4% 12.5% 45.7% 2.6% 1.0% 2.2% 0.5% 1.5%
x264 [info]: mb I I16..4: 7.7% 60.7% 31.6%
x264 [info]: mb P I16..4: 0.3% 3.6% 0.6% P16..4: 35.2% 22.0% 20.2% 10.6% 3.1% skip: 4.4%
x264 [info]: mb B I16..4: 0.0% 0.2% 0.0% B16..8: 34.4% 13.6% 1.7% direct: 3.7% skip:46.3% L0:34.0% L1:43.7% BI:22.4%
x264 [info]: 8x8 transform intra:74.8% inter:42.7%
x264 [info]: direct mvs spatial:83.8% temporal:16.2%
x264 [info]: coded y,uvDC,uvAC intra: 91.6% 87.8% 72.4% inter: 21.1% 20.5% 11.4%
x264 [info]: i16 v,h,dc,p: 41% 12% 15% 32%
x264 [info]: i8 v,h,dc,ddl,ddr,vr,hd,vl,hu: 6% 12% 8% 9% 13% 10% 14% 11% 17%
x264 [info]: i4 v,h,dc,ddl,ddr,vr,hd,vl,hu: 8% 12% 7% 8% 13% 10% 14% 10% 18%
x264 [info]: i8c dc,h,v,p: 48% 24% 12% 15%
x264 [info]: Weighted P-Frames: Y:5.5% UV:2.2%
x264 [info]: ref P L0: 65.6% 6.6% 12.6% 5.0% 3.2% 2.3% 2.0% 1.2% 1.2% 0.2% 0.0%
x264 [info]: ref B L0: 86.1% 7.9% 3.0% 1.1% 0.8% 0.5% 0.3% 0.1%
x264 [info]: ref B L1: 92.5% 7.5%
x264 [info]: kb/s:2894.73
x264 [total]: encoded 170352 frames, 9.62 fps, 2894.73 kb/s

Скриншот c названием фильма

Скриншоты

Яндекс.Метрика
Рейтинг@Mail.ru