По данным уголовного розыска... (1979)/Режиссер Валерий Михайловский/Жанр криминал, военный/DVDRip-AVC от New-Team

 

Создавать темы 10-Ноя-2013 04:48

Страна: СССР
Производство: Студия Горького
Жанр: криминал, военный
Год выпуска: 1979
Продолжительность: 01:09:31
Перевод: не требуется
Оригинальная аудиодорожка: русский
Cубтитры: нет
Режиссер: Валерий Михайловский
В ролях:
Леонид Неведомский, Александр Соловьев, Алексей Эйбоженко, Геннадий Крынкин, Алексей Михайлов, Георгий Штиль, Николай Скоробогатов, Николай Буров, Юрий Назаров, Александр Хочинский, Виктор Проскурин, Владимир Кенигсон, Елена Шанина...
Описание:
В июле 1941 года наступающими немецкими войсками была перехвачена машина, перевозившая ювелирные изделия. Руководство германской разведки решило внедрить своего агента по документам убитого инкассатора…
В августе 1942 года была убита семья ювелира Ивановского. Группа сотрудников МУРа во главе с опытным чекистом Даниловым начала свою операцию по обезвреживанию опасных преступников, которые были подготовлены в школах СД и Абвера для выполнения диверсионной работы. Важную роль в поимке вражеских агентов отводилась бывшему вору Кострову…
Исходник: DVD5 R5
Тип релиза: DVDRip-AVC
Контейнер: MKV
Видео: 688->986x538 (16:9), 25 fps, H264 ~ 1303 kbps avg, 0.141 bit/pixel
Аудио: 48 kHz, Dolby AC3 2.0, 192 kbps

MediaInfo

Общее
Полное имя : Po.dannym.ugolovnogo.rozyska.1979.DVDRip-AVC_[Youtracker]_by_AVP Studio.mkv
Формат : Matroska
Версия формата : Version 2
Размер файла : 744 Мбайт
Продолжительность : 1 ч. 9 м.
Общий поток : 1497 Кбит/сек
Дата кодирования : UTC 2013-10-24 20:50:54
Программа кодирования : mkvmerge v6.1.0 ('Old Devil') built on Mar 4 2013 09:10:42
Библиотека кодирования : libebml v1.3.0 + libmatroska v1.4.0
Видео
Идентификатор : 1
Формат : AVC
Формат/Информация : Advanced Video Codec
Профиль формата : [email protected]
Параметр CABAC формата : Да
Параметр ReFrames формата : 6 кадров
Идентификатор кодека : V_MPEG4/ISO/AVC
Продолжительность : 1 ч. 9 м.
Битрейт : 1303 Кбит/сек
Ширина : 688 пикселей
Высота : 538 пикселей
Соотношение сторон : 16:9
Частота кадров : 25,000 кадров/сек
Цветовое пространство : YUV
Субдискретизация насыщенности : 4:2:0
Битовая глубина : 8 бит
Тип развёртки : Прогрессивная
Бит/(Пиксели*Кадры) : 0.141
Размер потока : 634 Мбайт (85%)
Библиотека кодирования : x264 core 138 r2356 a1d3d17
Настройки программы : cabac=1 / ref=6 / deblock=1:-2:-1 / analyse=0x3:0x113 / me=umh / subme=10 / psy=1 / psy_rd=1.00:0.05 / mixed_ref=1 / me_range=32 / chroma_me=1 / trellis=2 / 8x8dct=1 / cqm=0 / deadzone=21,11 / fast_pskip=0 / chroma_qp_offset=-3 / threads=3 / lookahead_threads=1 / sliced_threads=0 / nr=0 / decimate=0 / interlaced=0 / bluray_compat=0 / constrained_intra=0 / bframes=8 / b_pyramid=2 / b_adapt=2 / b_bias=0 / direct=3 / weightb=1 / open_gop=0 / weightp=2 / keyint=250 / keyint_min=25 / scenecut=40 / intra_refresh=0 / rc=2pass / mbtree=0 / bitrate=1303 / ratetol=1.0 / qcomp=0.60 / qpmin=0 / qpmax=69 / qpstep=4 / cplxblur=20.0 / qblur=0.5 / ip_ratio=1.40 / pb_ratio=1.30 / aq=1:1.00
Default : Да
Forced : Нет
Аудио
Идентификатор : 2
Формат : AC-3
Формат/Информация : Audio Coding 3
Расширение режима : CM (complete main)
Идентификатор кодека : A_AC3
Продолжительность : 1 ч. 9 м.
Вид битрейта : Постоянный
Битрейт : 192 Кбит/сек
Каналы : 2 канала
Расположение каналов : Front: L R
Частота : 48,0 КГц
Битовая глубина : 16 бит
Метод сжатия : С потерями
Размер потока : 95,5 Мбайт (13%)
Default : Да
Forced : Нет

Скриншоты

Яндекс.Метрика
Рейтинг@Mail.ru