Космос: Территория смерти / Dead Space: Downfall (2008) BDRip 1080p

 

Создавать темы 08-Ноя-2013 01:54

Информация о фильме
Название: Космос: Территория смерти
Оригинальное название: Dead Space: Downfall
Год выхода: 2008
Жанр: мультфильм, ужасы, фантастика, триллер
Режиссер: Чак Паттон
В ролях: Ника Футтерман, Кит Шарабайка, Джим Каммингс, Кевин Майкл Ричардсон, Келли Ху, Брюс Бокслайтнер, Лия Сарджент, Хэл Спаркс, Джефф Беннетт, Джим Пиддок
О фильме: Бороздящий космические просторы горно-исследовательский корабль «Ишимура» натыкается на загадочную чужеродную Метку, обозначающую особую зону. Команда амбициозного экипажа уверена, что они обнаружили подтверждение существования наших создателей. Но…исследование и смещение Метки высвобождает НЕЧТО, относящиеся к инопланетному виду, которое долгое время было погребено на заброшенной отдаленной планете. Группа горняков и члены космического экипажа вынуждены вступить в отчаянную борьбу за выживание с МОНСТРОМ, с которым человечество доселе не сталкивалось.

Выпущено: Electronic Arts (EA)
Продолжительность: 01:14:24
Перевод: Многоголосый закадровый (лицензия) [ВидеоСервис]
Файл
Кодек: x264
Качество: BDRip (источник: Blu-ray Disc)
Видео: 1920x1080 (16:9), 23.976 fps, 4530 kbps
Аудио #1: AC-3, 6 ch, 448 kbps (Многоголосый закадровый, ВидеоСервис)
Аудио #2: AC-3, 6 ch, 448 kbps (Original)
Субтитры: Русские, Английские
Скачать: сэмпл

MI

Общее
Уникальный идентификатор : 187176645988230867886906501419104204139 (0x8CD0E9263F8604F88496A074740FF56B)
Полное имя : Dead.Space.Downfall.2008.BDRip.1080p.Rus.Eng.mkv
Формат : Matroska
Версия формата : Version 2
Размер файла : 2,82 Гбайт
Продолжительность : 1 ч. 14 м.
Общий поток : 5424 Кбит/сек
Название фильма : Космос: Территория смерти / Dead Space: Downfall (2008)
Дата кодирования : UTC 2013-11-07 16:22:05
Программа кодирования : mkvmerge v5.8.0 ('No Sleep / Pillow') built on Sep 2 2012 15:37:04
Библиотека кодирования : libebml v1.2.3 + libmatroska v1.3.0
Видео
Идентификатор : 1
Формат : AVC
Формат/Информация : Advanced Video Codec
Профиль формата : [email protected]
Параметр CABAC формата : Да
Параметр ReFrames формата : 4 кадра
Идентификатор кодека : V_MPEG4/ISO/AVC
Продолжительность : 1 ч. 14 м.
Битрейт : 4530 Кбит/сек
Ширина : 1920 пикселей
Высота : 1080 пикселей
Соотношение сторон : 16:9
Частота кадров : 23,976 кадра/сек
Цветовое пространство : YUV
Субдискретизация насыщенности : 4:2:0
Битовая глубина : 8 бит
Тип развёртки : Прогрессивная
Бит/(Пиксели*Кадры) : 0.091
Размер потока : 2,30 Гбайт (81%)
Заголовок : Release by AlexKa
Библиотека кодирования : x264 core 140 r2377 1ca7bb9
Настройки программы : cabac=1 / ref=4 / deblock=1:0:0 / analyse=0x3:0x133 / me=umh / subme=11 / psy=1 / psy_rd=1.00:0.00 / mixed_ref=1 / me_range=32 / chroma_me=1 / trellis=2 / 8x8dct=1 / cqm=0 / deadzone=21,11 / fast_pskip=0 / chroma_qp_offset=-2 / threads=12 / lookahead_threads=2 / sliced_threads=0 / nr=0 / decimate=1 / interlaced=0 / bluray_compat=0 / constrained_intra=0 / bframes=7 / b_pyramid=2 / b_adapt=2 / b_bias=0 / direct=3 / weightb=1 / open_gop=0 / weightp=2 / keyint=240 / keyint_min=23 / scenecut=40 / intra_refresh=0 / rc_lookahead=60 / rc=2pass / mbtree=1 / bitrate=4530 / ratetol=1.0 / qcomp=0.60 / qpmin=0 / qpmax=69 / qpstep=4 / cplxblur=20.0 / qblur=0.5 / vbv_maxrate=40000 / vbv_bufsize=30000 / nal_hrd=none / filler=0 / ip_ratio=1.40 / aq=1:1.00
Язык : English
Аудио #1
Идентификатор : 2
Формат : AC-3
Формат/Информация : Audio Coding 3
Расширение режима : CM (complete main)
Идентификатор кодека : A_AC3
Продолжительность : 1 ч. 14 м.
Вид битрейта : Постоянный
Битрейт : 448 Кбит/сек
Каналы : 6 каналов
Расположение каналов : Front: L C R, Side: L R, LFE
Частота : 48,0 КГц
Битовая глубина : 16 бит
Метод сжатия : С потерями
Размер потока : 238 Мбайт (8%)
Заголовок : Многоголосый закадровый, ВидеоСервис
Язык : Russian
Аудио #2
Идентификатор : 3
Формат : AC-3
Формат/Информация : Audio Coding 3
Расширение режима : CM (complete main)
Идентификатор кодека : A_AC3
Продолжительность : 1 ч. 14 м.
Вид битрейта : Постоянный
Битрейт : 448 Кбит/сек
Каналы : 6 каналов
Расположение каналов : Front: L C R, Side: L R, LFE
Частота : 48,0 КГц
Битовая глубина : 16 бит
Метод сжатия : С потерями
Размер потока : 238 Мбайт (8%)
Заголовок : Original
Язык : English
Текст #1
Идентификатор : 4
Формат : UTF-8
Идентификатор кодека : S_TEXT/UTF8
Идентификатор кодека/Информация : UTF-8 Plain Text
Заголовок : Rus
Язык : Russian
Текст #2
Идентификатор : 5
Формат : UTF-8
Идентификатор кодека : S_TEXT/UTF8
Идентификатор кодека/Информация : UTF-8 Plain Text
Заголовок : Eng
Язык : English
Меню
00:00:00.000 : :Chapter 01
00:04:37.735 : :Chapter 02
00:10:51.776 : :Chapter 03
00:15:27.301 : :Chapter 04
00:22:32.934 : :Chapter 05
00:30:09.140 : :Chapter 06
00:35:22.286 : :Chapter 07
00:45:36.358 : :Chapter 08
00:51:46.978 : :Chapter 09
00:54:56.710 : :Chapter 10
01:05:20.625 : :Chapter 11
01:10:27.223 : :Chapter 12
01:14:24.209 : :Chapter 13
Яндекс.Метрика
Рейтинг@Mail.ru