[ Сегодня на трекере фрилич! Идет свободное скачивание без начисления Download ]

Медведи / Bears (Аластер Фовергилл / Alastair Fothergill, Кит Шолей / Keith Scholey) [2014 г., документальный, HDRip] Dub + Original (Eng)

 

Создавать темы 12-Сен-2014 12:21

Медведи / Bears- Год выпуска: 2014 г.
Производство: США , Disneynature
Жанр: документальный
Продолжительность: 01:17:45
Мировая премьера: 17 апреля 2014
Дата выхода DVD: 5 августа 2014, «Уолт Дисней Компани СНГ»
Перевод: Профессиональный (полное дублирование)
Оригинальный аудиопоток: английский
Режиссёры: Аластер Фовергилл / Alastair Fothergill, Кит Шолей / Keith Scholey-В ролях: Джон Си Райли, медведица Скай, медвежата Скаут и Эмбер-Описание: Документальная лента следует за семьёй медведей на Аляске по мере того, как растущие медвежата начинают постигать главные уроки жизни.
-Качество видео: HDRip
Контейнер: AVI
Видео кодек: XviD
Аудио кодек: AC3
Видео: 720x400, 1612 kbps, 23.976 fps, 0.233 bit/pixel
Аудио #1: Rus: 448 kbps, 6 ch, 48.0 kHz
Аудио #2: Eng: 448 kbps, 6 ch, 48.0 kHz
Cубтитры: отсутствуют

Media Info

Общее
Полное имя : Медведи_ Bears.2014.[HDRip].avi
Формат : AVI
Формат/Информация : Audio Video Interleave
Размер файла : 1,37 Гбайт
Продолжительность : 1 ч. 17 м.
Общий поток : 2522 Кбит/сек
Программа кодирования : VirtualDubMod 1.5.10.2 (build 2540/release)
Библиотека кодирования : VirtualDubMod build 2540/release
Видео
Идентификатор : 0
Формат : MPEG-4 Visual
Профиль формата : Advanced [email protected]
Параметр BVOP формата : 2
Параметр QPel формата : Нет
Параметр GMC формата : Без точки перехода
Параметр матрицы формата : Default (MPEG)
Идентификатор кодека : XVID
Идентификатор кодека/Подсказка : XviD
Продолжительность : 1 ч. 17 м.
Битрейт : 1612 Кбит/сек
Ширина : 720 пикселей
Высота : 400 пикселей
Соотношение сторон : 16:9
Частота кадров : 23,976 кадра/сек
Цветовое пространство : YUV
Субдискретизация насыщенности : 4:2:0
Битовая глубина : 8 бит
Тип развёртки : Прогрессивная
Метод сжатия : С потерями
Бит/(Пиксели*Кадры) : 0.233
Размер потока : 896 Мбайт (64%)
Библиотека кодирования : XviD 1.2.1 (UTC 2008-12-04)
Аудио #1
Идентификатор : 1
Формат : AC-3
Формат/Информация : Audio Coding 3
Расширение режима : CM (complete main)
Параметр Endianness формата : Big
Идентификатор кодека : 2000
Продолжительность : 1 ч. 17 м.
Вид битрейта : Постоянный
Битрейт : 448 Кбит/сек
Каналы : 6 каналов
Расположение каналов : Front: L C R, Side: L R, LFE
Частота : 48,0 КГц
Битовая глубина : 16 бит
Метод сжатия : С потерями
Размер потока : 249 Мбайт (18%)
Выравнивание : Разделение по промежуткам
Продолжительность промежутка : 42 мс. (1,00 видеокадр)
Время предзагрузки промежутка : 500 мс.
Аудио #2
Идентификатор : 2
Формат : AC-3
Формат/Информация : Audio Coding 3
Расширение режима : CM (complete main)
Параметр Endianness формата : Big
Идентификатор кодека : 2000
Продолжительность : 1 ч. 17 м.
Вид битрейта : Постоянный
Битрейт : 448 Кбит/сек
Каналы : 6 каналов
Расположение каналов : Front: L C R, Side: L R, LFE
Частота : 48,0 КГц
Битовая глубина : 16 бит
Метод сжатия : С потерями
Размер потока : 249 Мбайт (18%)
Выравнивание : Разделение по промежуткам
Продолжительность промежутка : 42 мс. (1,00 видеокадр)
Время предзагрузки промежутка : 500 мс.
Яндекс.Метрика
Рейтинг@Mail.ru