Гражданская оборона. Выпуск 1 (2014.08.26) SATRip [RUS/UKR]

 

Создавать темы 03-Сен-2014 17:38

- Гражданская оборона. Выпуск 1 (2014.08.26) SATRip [RUS/UKR] - Режиссер / Телекомпания:
ICTV
Русское название: Гражданская оборона
Год выпуска: 2014
Жанр: Документальный
Выпущено: Украина
Язык: Украинский/Русский
Описание:
Несколько месяцев назад жизнь украинцев кардинально изменилась – мы ежедневно следим за тем, что происходит на Востоке Украины, в наш словесный оборот устойчиво вошли определенные военные и политические термины. Однако достаточно ли знают украинцы о том, что читают, говорят и думают? Военные и политические тайны, которые, так или иначе, касаются Украины, неизвестные до сих пор исторические факты и события настоящего раскроет зрителям информационно-публицистическая программа «Гражданская оборона».
Скрытая война, секретные агенты и террористические операции – все это происходит совсем рядом. Эксперты проекта «Гражданская оборона» поделятся со зрителями неизвестными военными и политическими секретами, обратят внимание на то, о чем вы даже не задумывались. Военные и политики, разведчики, сотрудники спецслужб, ученые – далеко не полный перечень «информаторов» программы.
Сюжеты на темы истории, военного дела, новейших военных разработок науки и техники, политики и геополитики помогут зрителям найти ответы на все острые вопросы. «Гражданская оборона» откроет глаза гражданам на то, что от них скрывают, и развеет мифы, которые навязывают нам враги страны.
Продолжительность: 00:50:32
Видеокодек: Xvid
Битрейт видео: ~1870 Кбит/сек
Размер кадра: 720 x 400
Качество видео: SATRip
Аудиокодек: MP3, 2ch.
Битрейт аудио: 192 Кбит/сек

MediaInfo:

Формат : AVI
Формат/Информация : Audio Video Interleave
Размер файла : 749 Мбайт
Продолжительность : 50 м.
Общий поток : 2071 Кбит/сек
Программа кодирования : VirtualDubMod 1.5.10.3 | www.virtualdub-fr.org || (build 2550/release)
Библиотека кодирования : VirtualDubMod build 2550/release
Видео
Идентификатор : 0
Формат : MPEG-4 Visual
Профиль формата : Advanced [email protected]
Параметр BVOP формата : 1
Параметр QPel формата : Нет
Параметр GMC формата : Без точки перехода
Параметр матрицы формата : Default (MPEG)
Идентификатор кодека : XVID
Идентификатор кодека/Подсказка : XviD
Продолжительность : 50 м.
Битрейт : 1869 Кбит/сек
Ширина : 720 пикселей
Высота : 400 пикселей
Соотношение сторон : 16:9
Частота кадров : 25,000 кадров/сек
Цветовое пространство : YUV
Субдискретизация насыщенности : 4:2:0
Битовая глубина : 8 бит
Тип развёртки : Прогрессивная
Метод сжатия : С потерями
Бит/(Пиксели*Кадры) : 0.260
Размер потока : 676 Мбайт (90%)
Библиотека кодирования : XviD 1.2.1 (UTC 2008-12-04)
Аудио
Идентификатор : 1
Формат : MPEG Audio
Версия формата : Version 1
Профиль формата : Layer 3
Режим : Joint stereo
Расширение режима : MS Stereo
Идентификатор кодека : 55
Идентификатор кодека/Подсказка : MP3
Продолжительность : 50 м.
Вид битрейта : Постоянный
Битрейт : 192 Кбит/сек
Каналы : 2 канала
Частота : 48,0 КГц
Метод сжатия : С потерями
Размер потока : 69,4 Мбайт (9%)
Выравнивание : Соединение по промежуткам
Продолжительность промежутка : 40 мс. (1,00 видеокадр)
Время предзагрузки промежутка : 504 мс.
Библиотека кодирования : LAME3.99r
Настройки программы : -m j -V 4 -q 2 -lowpass 18.6 -b 192
Скриншоты:

Время раздачи: 24/7. До первых 5 скачавших.
Rip by simkanetua
Яндекс.Метрика
Рейтинг@Mail.ru