[ Сегодня на трекере фрилич! Идет свободное скачивание без начисления Download ]

Странный Томас / Odd Thomas (Стивен Соммерс) [2013, триллер, детектив, фэнтези, боевик, HDRip] от Youtracker

 

Создавать темы 04-Ноя-2013 15:14

Страна: США
Жанр: триллер, детектив, фэнтези, боевик
Год выпуска: 2013
Продолжительность: 01:36:40-Перевод: Любительский (многоголосый, закадровый) [Товарищество 110/17]
Режиссер: Стивен Соммерс / Stephen Sommers
В ролях: Антон Ельчин (Odd Thomas), Эддисон Тимлин (Stormy Llewellyn), Гугу Мбата-Роу (Viola Peabody), Нико Торторелла (Officer Simon Varner), Пэттон Освальт (Ozzie Boone), Уиллем Дефо (Chief Wyatt Porter), Эшли Соммерс (Penny Kalisto), Леонор Варела (Odd's Mother), Мэттью Пейдж (Harlo Landerson), Кэйси Мессер (Pool Mom), Барни Леннинг (Stevie), Кайл МакКивер (Officer Bern Eckles)-Описание: Главный герой наделен даром (или проклятием) видеть мертвецов. Каждый их визит становится началом очередной охоты на убийцу - призраки ведут Томаса на помощь тем, кому еще рано расставаться с жизнью. О способности героя знают только самые близкие друзья и любимая девушка. С их помощью ему предстоит отвести большую беду от маленького городка в центре пустыни Мохаве.- -Качество: HDRip | sample
Контейнер: AVI
Исходник: BDRip 720p
Видео: XviD, 720x304 (2.35:1), 1762 kbps, 23,976 fps, 0,336 bpp
Аудио: AC3 / 5.1 / 48 kHz / 384 kbps / 16 bit-

Скриншоты

Media Info

General
Complete name : E:My_ripOdd.Thomas.2013.BDRip.[Youtracker].avi
Format : AVI
Format/Info : Audio Video Interleave
File size : 1.46 GiB
Duration : 1h 36mn
Overall bit rate : 2 155 Kbps
Writing application : VirtualDubMod 1.5.10.3 | www.virtualdub-fr.org || (build 2550/release)
Writing library : VirtualDubMod build 2550/release
Video
ID : 0
Format : MPEG-4 Visual
Format profile : Advanced [email protected]
Format settings, BVOP : 2
Format settings, QPel : No
Format settings, GMC : No warppoints
Format settings, Matrix : Custom
Codec ID : XVID
Codec ID/Hint : XviD
Duration : 1h 36mn
Bit rate : 1 762 Kbps
Width : 720 pixels
Height : 304 pixels
Display aspect ratio : 2.35:1
Frame rate : 23.976 fps
Color space : YUV
Chroma subsampling : 4:2:0
Bit depth : 8 bits
Scan type : Progressive
Compression mode : Lossy
Bits/(Pixel*Frame) : 0.336
Stream size : 1.19 GiB (82%)
Writing library : XviD 65
Audio
ID : 1
Format : AC-3
Format/Info : Audio Coding 3
Mode extension : CM (complete main)
Codec ID : 2000
Duration : 1h 36mn
Bit rate mode : Constant
Bit rate : 384 Kbps
Channel(s) : 6 channels
Channel positions : Front: L C R, Side: L R, LFE
Sampling rate : 48.0 KHz
Bit depth : 16 bits
Compression mode : Lossy
Stream size : 265 MiB (18%)
Alignment : Split accross interleaves
Interleave, duration : 42 ms (1.00 video frame)
Interleave, preload duration : 500 ms

_________________
Подпись отключена за нарушение правил форума
Яндекс.Метрика
Рейтинг@Mail.ru