Discovery: Разрушители легенд. Голливудские взрывы / MythBusters. Fire In The Hole (Сезон 14, эпизод 1) (2014) WEB-DL [H.264/720p-LQ] [Jetvis Studio]

 

Создавать темы 30-Авг-2014 12:44

- Discovery: Разрушители легенд. Голливудские взрывы / MythBusters. Fire In The Hole (Сезон 14, эпизод 1) (2014) WEB-DL [H.264/720p-LQ] [Jetvis Studio] - Режиссер / Телекомпания:
Discovery
Русское название: Разрушители легенд
Оригинальное название: MythBusters
Год выпуска: 2014
Жанр: Познавательное шоу-Описание:
«Разрушители легенд» (англ. MythBusters) — американская научно-популярная телепередача на канале Discovery Channel. Передачу ведут специалисты по спецэффектам Джейми Хайнеман и Адам Севидж, использующие свои навыки и опыт для экспериментальной проверки различных баек, слухов, городских легенд и других порождений популярной культуры. Съёмки передачи обычно проходят в области залива Сан-Франциско.
Каждый из часовых выпусков «Разрушители легенд» посвящён двум или трём городским легендам, распространённым убеждениям или слухам из интернета. Основной миф часто требует всесторонней подготовки и полигона, кроме него в передачу также включают один-два не столь хлопотных в плане подготовки и проведения мифа. На сегодняшний день, однако, три эксперимента (35, 40, и 46) были настолько сложными, что заняли весь час, отведённый на передачу.
Ведущий: Adam Savage, Jamie Hyneman, Kari Byron, Grant Imahara, Tory Belleci
Режиссёр: Steve Christiansen, Lauren Williams
Перевод: Одноголосый закадровый - Jetvis Studio
Продолжительность: ~ 00:41:51
Видеокодек: AVC
Битрейт видео: ~2700 kb/s
Размер кадра: 1280 x 720
Качество видео: WEB-DL
Аудио (русский): AC3, 2ch., 192 kb/s

MediaInfo

Формат : Matroska
Версия формата : Version 4 / Version 2
Размер файла : 864 Мбайт
Продолжительность : 41 м.
Общий поток : 2886 Кбит/сек
Дата кодирования : UTC 2014-07-24 19:06:46
Программа кодирования : mkvmerge v7.0.0 ('Where We Going') 64bit built on Jun 9 2014 15:16:27
Библиотека кодирования : libebml v1.3.0 + libmatroska v1.4.1
Видео
Идентификатор : 1
Формат : AVC
Формат/Информация : Advanced Video Codec
Профиль формата : [url=mailto:[email protected]][email protected][/url]
Параметр CABAC формата : Да
Параметр ReFrames формата : 3 кадра
Идентификатор кодека : V_MPEG4/ISO/AVC
Продолжительность : 41 м.
Битрейт : 2700 Кбит/сек
Ширина : 1280 пикселей
Высота : 720 пикселей
Соотношение сторон : 16:9
Режим частоты кадров : Переменный
Частота кадров : 25,000 кадров/сек
Цветовое пространство : YUV
Субдискретизация насыщенности : 4:2:0
Битовая глубина : 8 бит
Тип развёртки : Прогрессивная
Бит/(Пиксели*Кадры) : 0.117
Размер потока : 789 Мбайт (91%)
Библиотека кодирования : x264 core 116 r2019M 9cc407d
Настройки программы : cabac=1 / ref=3 / deblock=1:0:0 / analyse=0x3:0x133 / me=hex / subme=7 / psy=1 / psy_rd=1.00:0.20 / mixed_ref=1 / me_range=16 / chroma_me=1 / trellis=1 / 8x8dct=1 / cqm=0 / deadzone=21,11 / fast_pskip=1 / chroma_qp_offset=-3 / threads=8 / sliced_threads=0 / nr=0 / decimate=1 / interlaced=0 / bluray_compat=0 / constrained_intra=0 / bframes=3 / b_pyramid=1 / b_adapt=2 / b_bias=0 / direct=3 / weightb=1 / open_gop=0 / weightp=2 / keyint=250 / keyint_min=25 / scenecut=40 / intra_refresh=0 / rc_lookahead=40 / rc=2pass / mbtree=1 / bitrate=2700 / ratetol=1.0 / qcomp=0.60 / qpmin=10 / qpmax=51 / qpstep=4 / cplxblur=20.0 / qblur=0.5 / ip_ratio=1.40 / aq=1:1.00
Default : Да
Forced : Нет
DURATION : 00:41:51.520000000
NUMBER_OF_FRAMES : 62784
NUMBER_OF_BYTES : 845280820
_STATISTICS_WRITING_APP : mkvmerge v7.0.0 ('Where We Going') 64bit built on Jun 9 2014 15:16:27
_STATISTICS_WRITING_DATE_UTC : 2014-07-24 19:06:46
_STATISTICS_TAGS : BPS DURATION NUMBER_OF_FRAMES NUMBER_OF_BYTES
Аудио
Идентификатор : 2
Формат : AC-3
Формат/Информация : Audio Coding 3
Расширение режима : CM (complete main)
Идентификатор кодека : A_AC3
Продолжительность : 41 м.
Вид битрейта : Постоянный
Битрейт : 192 Кбит/сек
Каналы : 2 канала
Расположение каналов : Front: L R
Частота : 48,0 КГц
Битовая глубина : 16 бит
Метод сжатия : С потерями
Размер потока : 57,5 Мбайт (7%)
Заголовок : Jetvis Studio
Язык : Russian
Default : Да
Forced : Нет
DURATION : 00:41:51.520000000
NUMBER_OF_FRAMES : 78485
NUMBER_OF_BYTES : 60276480
_STATISTICS_WRITING_APP : mkvmerge v7.0.0 ('Where We Going') 64bit built on Jun 9 2014 15:16:27
_STATISTICS_WRITING_DATE_UTC : 2014-07-24 19:06:46
_STATISTICS_TAGS : BPS DURATION NUMBER_OF_FRAMES NUMBER_OF_BYTES
Скриншоты:Время раздачи: 24/7. До первых 5 скачавших.
Rip by Jetvis Studio
Яндекс.Метрика
Рейтинг@Mail.ru