Новый мир / New World (Пак Хун Джон / Park Hoon Jung) [2013 г., триллер, BDRip, 720p] DVO Sub Eng, RUS

 

Создавать темы 04-Ноя-2013 10:16

-Новый мир / New World-- Производство: Южная Корея
Год выпуска: 2013 г.
Жанр: триллер
Продолжительность: 02:15:16-Мировая премьера: 21 февраля 2013
Перевод: Любительский (двухголосый, закадровый) [den904, DeadSno / Перевод: DeadSno]
Режиссер: Пак Хун Джон / Park Hoon Jung-В ролях:
Чхве Мин Сик, Хван Чжон Мин, Чан Гван, Ли Чжон-чжэ, Пак Сон-Ун, Сон Чжи Хё-Описание:
Детектив проникает в одну из крупнейших преступных группировок в стране и оказывается вовлеченным в борьбу за место главы банды, когда тот умирает…
- -Качество видео: BDRip
Контейнер: MKV
Стандарт разрешения: 720p
Видео кодек: V_MPEG4/ISO/AVC
Аудио кодек: AC3
Видео: MPEG4 Video (H264) 1280x544 24,000 кадра/сек
Аудио: Dolby AC3 48000Hz 6ch 640kbps
Cубтитры: английские, русские (DeadSno), русские (РГ "ClubFate")

Media Info

Общее
Уникальный идентификатор : 228029877345002288777070422815220300127 (0xAB8CF4F75B66C2E0B656A8DE11CDF95F)
Полное имя : D:\Torrent\Видео\New World.2013.720p_[pirat.ca].mkv
Формат : Matroska
Версия формата : Version 2
Размер файла : 3,65 Гбайт
Продолжительность : 2 ч. 15 м.
Общий поток : 3862 Кбит/сек
Название фильма : -=LEONARDO=-
Дата кодирования : UTC 2013-11-02 07:30:48
Программа кодирования : mkvmerge v5.8.0 ('No Sleep / Pillow') built on Sep 2 2012 15:37:04
Библиотека кодирования : libebml v1.2.3 + libmatroska v1.3.0
Видео
Идентификатор : 1
Формат : AVC
Формат/Информация : Advanced Video Codec
Профиль формата : [email protected]
Параметр CABAC формата : Да
Параметр ReFrames формата : 8 кадров
Идентификатор кодека : V_MPEG4/ISO/AVC
Продолжительность : 2 ч. 15 м.
Битрейт : 3145 Кбит/сек
Ширина : 1280 пикселей
Высота : 544 пикселя
Соотношение сторон : 2,35:1
Режим частоты кадров : Постоянный
Частота кадров : 24,000 кадра/сек
Цветовое пространство : YUV
Субдискретизация насыщенности : 4:2:0
Битовая глубина : 8 бит
Тип развёртки : Прогрессивная
Бит/(Пиксели*Кадры) : 0.188
Размер потока : 2,97 Гбайт (81%)
Библиотека кодирования : x264 core 125 r2208 d9d2288
Настройки программы : cabac=1 / ref=8 / deblock=1:-3:-3 / analyse=0x3:0x133 / me=umh / subme=11 / psy=1 / psy_rd=1.00:0.15 / mixed_ref=1 / me_range=32 / chroma_me=1 / trellis=2 / 8x8dct=1 / cqm=0 / deadzone=21,11 / fast_pskip=0 / chroma_qp_offset=-3 / threads=12 / lookahead_threads=2 / sliced_threads=0 / nr=0 / decimate=1 / interlaced=0 / bluray_compat=0 / constrained_intra=0 / bframes=8 / b_pyramid=2 / b_adapt=2 / b_bias=0 / direct=1 / weightb=1 / open_gop=0 / weightp=2 / keyint=250 / keyint_min=24 / scenecut=40 / intra_refresh=0 / rc=crf / mbtree=0 / crf=17.5 / qcomp=0.60 / qpmin=0 / qpmax=69 / qpstep=4 / ip_ratio=1.30 / pb_ratio=1.15 / aq=2:1.00
Язык : English
Default : Да
Forced : Нет
Аудио
Идентификатор : 2
Формат : AC-3
Формат/Информация : Audio Coding 3
Расширение режима : CM (complete main)
Параметр Endianness формата : Big
Идентификатор кодека : A_AC3
Продолжительность : 2 ч. 15 м.
Вид битрейта : Постоянный
Битрейт : 640 Кбит/сек
Каналы : 6 каналов
Расположение каналов : Front: L C R, Side: L R, LFE
Частота : 48,0 КГц
Битовая глубина : 16 бит
Метод сжатия : С потерями
Размер потока : 619 Мбайт (17%)
Заголовок : DVO [den904, DeadSno]
Язык : Russian
Default : Да
Forced : Да
Текст #1
Идентификатор : 3
Формат : ASS
Идентификатор кодека : S_TEXT/ASS
Идентификатор кодека/Информация : Advanced Sub Station Alpha
Метод сжатия : Без потерь
Заголовок : DeadSno
Язык : Russian
Default : Нет
Forced : Нет
Текст #2
Идентификатор : 4
Формат : ASS
Идентификатор кодека : S_TEXT/ASS
Идентификатор кодека/Информация : Advanced Sub Station Alpha
Метод сжатия : Без потерь
Заголовок : RG "ClubFate"
Язык : Russian
Default : Нет
Forced : Нет
Текст #3
Идентификатор : 5
Формат : UTF-8
Идентификатор кодека : S_TEXT/UTF8
Идентификатор кодека/Информация : UTF-8 Plain Text
Язык : English
Default : Нет
Forced : Нет
Меню
00:00:00.000 : en:
00:06:11.333 : en:
00:16:04.000 : en:
00:25:04.750 : en:
00:32:28.250 : en:
00:41:56.583 : en:
00:47:27.666 : en:
00:56:24.958 : en:
01:06:15.208 : en:
01:18:40.125 : en:
01:29:30.208 : en:
01:37:18.958 : en:
01:45:01.875 : en:
01:52:49.875 : en:
02:01:35.125 : en:
02:11:26.416 : en:

Скриншот c названием фильма

Скриншоты

Создавать темы 26-Янв-2016 23:18 (спустя 2 года 2 месяца)

Топик был перенесен из форума Зарубежные Новинки (HD*Rip/LQ, DVDRip) в форум Азиатское кино
T_O_M
Яндекс.Метрика
Рейтинг@Mail.ru