[ Сегодня на трекере фрилич! Идет свободное скачивание без начисления Download ]

Узел / Nudos (2003) DVDRip

 

Создавать темы 30-Авг-2014 10:54

-Узел / Nudos (2003) DVDRip- Год выпуска: 2003
Производство: Испания
Жанр: Драма, Комедия
Описание фильма:
Обычный мир барселонских рыбаков и крупная солидная страховая компания, расследующая несчастный случай, произошедший в открытом море с одним из рыбаков. Расследование обстоятельств смерти поручено молодому адвокату — Сильвии, красивой и изысканной женщине из богатого квартала. Тесно общаясь с кругом близких покойному рыбаку людей, Сильвия понимает, на какие подвиги способна сила всемогущей любви, которой ей так не хватает в жизни…
Режиссер: Льюис Мария Гуэль
Актеры: Чаро Лопес, Гойя Толедо, Карлос Альварес-Новоа, Санти Мильян, Франсеск Орелья, Эктор Альтерио, Тереле Павес, Пепа Лопес, Хоан Кросас, Олайя Эскрибано
Продолжительность: 01:37:40
Качество видео: DVDRip
Перевод: Дублированный
Дата мировой премьеры: 7 марта 2003
Дата российской премьеры: 10 марта 2005, «ТПО ТДФ»
Дата выхода DVD релиза: 29 ноября 2005, «Юнидиджитал Трэйдинг»
Видеокодек: Xvid
Битрейт видео: ~1736 kb/s
Размер кадра: 704x384
Аудиокодек: AC3 5.1
Битрейт аудио: 384 kb/s
Сэмпл: Ссылка

MediaInfo:

Общее
Полное имя                               : C:Торренты\Узел.2003.D.DVDRip.avi
Формат                                   : AVI
Формат/Информация                        : Audio Video Interleave
Размер файла                             : 1,45 Гбайт
Продолжительность                        : 1 ч. 37 м.
Общий поток                              : 2130 Кбит/сек
Программа кодирования                    : VirtualDubMod 1.5.10.3 (build 2550/release)
Библиотека кодирования                   : VirtualDubMod build 2550/release
Видео
Идентификатор                            : 0
Формат                                   : MPEG-4 Visual
Профиль формата                          : Advanced [email protected]
Параметр BVOP формата                    : 2
Параметр QPel формата                    : Нет
Параметр GMC формата                     : Без точки перехода
Параметр матрицы формата                 : Default (H.263)
Идентификатор кодека                     : XVID
Идентификатор кодека/Подсказка           : XviD
Продолжительность                        : 1 ч. 37 м.
Битрейт                                  : 1736 Кбит/сек
Ширина                                   : 704 пикселя
Высота                                   : 384 пикселя
Соотношение сторон                       : 1,85:1
Частота кадров                           : 25,000 кадров/сек
Цветовое пространство                    : YUV
Субдискретизация насыщенности            : 4:2:0
Битовая глубина                          : 8 бит
Тип развёртки                            : Прогрессивная
Метод сжатия                             : С потерями
Бит/(Пиксели*Кадры)                      : 0.257
Размер потока                            : 1,18 Гбайт (82%)
Библиотека кодирования                   : XviD 64
Аудио
Идентификатор                            : 1
Формат                                   : AC-3
Формат/Информация                        : Audio Coding 3
Расширение режима                        : CM (complete main)
Параметр Endianness формата              : Big
Идентификатор кодека                     : 2000
Продолжительность                        : 1 ч. 37 м.
Вид битрейта                             : Постоянный
Битрейт                                  : 384 Кбит/сек
Каналы                                   : 6 каналов
Расположение каналов                     : Front: L C R, Side: L R, LFE
Частота                                  : 48,0 КГц
Битовая глубина                          : 16 бит
Метод сжатия                             : С потерями
Размер потока                            : 268 Мбайт (18%)
Выравнивание                             : Разделение по промежуткам
Продолжительность промежутка             : 40  мс. (1,00 видеокадр)
Время предзагрузки промежутка            : 500  мс.

Скриншоты:

Яндекс.Метрика
Рейтинг@Mail.ru