Гензель и Гретель: Борцы с колдовством / Hansel & Gretel: Warriors of Witchcraft (2013)/Режиссер: Дэвид ДеКото/ ужасы, триллер, приключения/BDRip 1080p от CINEMANIA | P

 

Создавать темы 04-Ноя-2013 04:32

Информация о фильме
Название: Гензель и Гретель: Борцы с колдовством
Оригинальное название: Hansel & Gretel: Warriors of Witchcraft
Год выхода: 2013
Жанр: ужасы, триллер, приключения
Режиссер: Дэвид ДеКото
В ролях: Фивель Стюарт, Бубу Стюарт, Эрик Робертс, Ванесса Эйнджел, Джуди Нортон, Шери Кэрри, Тайн Стеклейн, Кортни Терк, Кэтрин Коллинз, Никлас Гиллис, Зак Гудспид
О фильме:
Брат и сестра поступают в одну из престижных американских школ, где учатся только дети самых богатых и почитаемых людей страны. Ребята решают попасть в закрытый элитный клуб, чтобы стать "своими" среди сливок общества. Они настолько одержимы идеей подружиться с популярными мальчиками и девочками, что не замечают странных вещей, происходящих в стенах учебного заведения. Проанализировав цепочку некоторых таинственных событий, они понимают, что многие из преподавателей школы - могущественные маги, а члены закрытого клуба - ведьмы и колдуны...
Выпущено: США / Rapid Heart Pictures
Продолжительность: 01:23:16
Озвучивание: Профессиональное (многоголосое) [канал Disney]
Файл
Формат: MKV
Качество: BDRip 1080p [ENCOUNTERS]
Видео: 8179 kb/s, 1920х1080
Аудио: Russian: AC3, 192 kb/s (2 ch) / English: DTS, 768 kb/s (6 ch)
Размер: 5.42 GB
Скачать: Сэмпл
Релиз группы:

NFO

General
Hansel.and.Gretel.Warriors.of.Witchcraft.2013.BDRip.1080p.CINEMANIA.mkv
Format : Matroska
Format version : Version 4 / Version 2
File size : 5.42 GiB
Duration : 1h 23mn
Overall bit rate : 9 325 Kbps
Movie name : CINEMANIA.CC
Encoded date : UTC 2013-11-03 21:41:53
Writing application : mkvmerge v6.5.0 ('Isn't she lovely') built on Oct 20 2013 12:50:05
Writing library : libebml v1.3.0 + libmatroska v1.4.1
Video
ID : 1
Format : AVC
Format/Info : Advanced Video Codec
Format profile : [email protected]
Format settings, CABAC : Yes
Format settings, ReFrames : 4 frames
Codec ID : V_MPEG4/ISO/AVC
Duration : 1h 23mn
Bit rate : 8 179 Kbps
Width : 1 920 pixels
Height : 1 080 pixels
Display aspect ratio : 16:9
Frame rate mode : Constant
Frame rate : 23.976 fps
Color space : YUV
Chroma subsampling : 4:2:0
Bit depth : 8 bits
Scan type : Progressive
Bits/(Pixel*Frame) : 0.165
Stream size : 4.76 GiB (88%)
Title : CINEMANIA.CC
Writing library : x264 core 132 r2309 3b1f1f7
Encoding settings : cabac=1 / ref=4 / deblock=1:-1:-1 / analyse=0x3:0x133 / me=umh / subme=7 / psy=1 / psy_rd=1.00:0.15 / mixed_ref=1 / me_range=16 / chroma_me=1 / trellis=1 / 8x8dct=1 / cqm=0 / deadzone=21,11 / fast_pskip=0 / chroma_qp_offset=-3 / threads=9 / lookahead_threads=1 / sliced_threads=0 / nr=0 / decimate=1 / interlaced=0 / bluray_compat=0 / constrained_intra=0 / bframes=3 / b_pyramid=2 / b_adapt=1 / b_bias=0 / direct=1 / weightb=1 / open_gop=0 / weightp=2 / keyint=250 / keyint_min=23 / scenecut=40 / intra_refresh=0 / rc_lookahead=40 / rc=crf / mbtree=1 / crf=20.0 / qcomp=0.60 / qpmin=0 / qpmax=69 / qpstep=4 / ip_ratio=1.40 / aq=1:1.00
Default : Yes
Forced : No
Audio #1
ID : 2
Format : AC-3
Format/Info : Audio Coding 3
Mode extension : CM (complete main)
Format settings, Endianness : Big
Codec ID : A_AC3
Duration : 1h 23mn
Bit rate mode : Constant
Bit rate : 192 Kbps
Channel(s) : 2 channels
Channel positions : Front: L R
Sampling rate : 48.0 KHz
Bit depth : 16 bits
Compression mode : Lossy
Stream size : 114 MiB (2%)
Title : Disney
Language : Russian
Default : Yes
Forced : Yes
Audio #2
ID : 3
Format : DTS
Format/Info : Digital Theater Systems
Mode : 16
Format settings, Endianness : Big
Codec ID : A_DTS
Duration : 1h 23mn
Bit rate mode : Constant
Bit rate : 768 Kbps
Channel(s) : 6 channels
Channel positions : Front: L C R, Side: L R, LFE
Sampling rate : 48.0 KHz
Bit depth : 16 bits
Compression mode : Lossy
Stream size : 458 MiB (8%)
Language : English
Default : No
Forced : No

Скриншоты:

Яндекс.Метрика
Рейтинг@Mail.ru