Солт / Salt (2010) BDRip [1080p] [Director's Cut]

 

Создавать темы 27-Авг-2014 21:09

-Солт / Salt (2010) BDRip- Год выпуска: 2010
Производство: США
Жанр: Боевик, Криминал, Детектив
Перевод: Дублированный
Субтитры: Вшитые (отключаемые)
Язык субтитров: Русские (forced), Украинские, Английские, Английские (forced), English (commentary), Французский, Испаниский
Режиссер: Филлип Нойс
Актеры: Анджелина Джоли, Лив Шрайбер, Чиветел Эджиофор, Даниэль Ольбрыхский, Аугуст Диль, Дэниэл Пирс, Хант Блок, Андре Брогер, Олек Крупа, Кэссиди Хинкль
Описание фильма:
Эвелин Солт - сотрудница ЦРУ. Ей чудом удаётся избежать тюрьмы: собственное агентство выдвигает против неё необоснованные обвинения в том, что она работает на русскую разведку. Теперь Солт необходимо восстановить своё доброе имя.
Продолжительность: 01:44:04
Качество видео: BDRip
Видеокодек: MPEG-4 AVC/H.264
Битрейт видео: ~13000 kbps
Размер кадра: 1920x800
Аудио 1: Русский AC3, 3/2 (L,C,R,l,r) + LFE ch, ~640.00 kbps avg |Дубляж, Blu-ray CEE|
Аудио 2: Английский DTS, 3/2 (L,C,R,l,r) + LFE ch, ~1536.00 kbps avg
Аудио 3: Английский AC3, 2/0 (L,R) ch, ~192.00 kbps avg |Commentary with Director Phillip Noyce|-

MediaInfo:

General
Complete name                    : E:\Salt.2010.DC.1080p.
Format                           : Matroska
File size                        : 11.4 GiB
Duration                         : 1h 44mn
Overall bit rate                 : 15.6 Mbps
Movie name                       : Salt (2010)
Encoded date                     : UTC 2010-12-02 12:54:55
Writing application              : mkvmerge v4.4.0 ('Die Wiederkehr') сборка от Oct 31 2010 21:52:48
Writing library                  : libebml v1.0.0 + libmatroska v1.0.0
Video
ID                               : 1
Format                           : AVC
Format/Info                      : Advanced Video Codec
Format profile                   : [url=mailto:[email protected]][email protected][/url]
Format settings, CABAC           : Yes
Format settings, ReFrames        : 5 frames
Muxing mode                      : Container [email protected]
Codec ID                         : V_MPEG4/ISO/AVC
Duration                         : 1h 43mn
Bit rate                         : 13.0 Mbps
Width                            : 1 920 pixels
Height                           : 800 pixels
Display aspect ratio             : 2.40:1
Frame rate                       : 23.976 fps
Resolution                       : 8 bits
Colorimetry                      : 4:2:0
Scan type                        : Progressive
Bits/(Pixel*Frame)               : 0.353
Stream size                      : 9.43 GiB (83%)
Title                            : Salt (2010)
Writing library                  : x264 core 108 r1790 8eaf8a6
Encoding settings                : cabac=1 / ref=5 / deblock=1:-3:-3 / analyse=0x3:0x113 / me=tesa / subme=10 / psy=1 / psy_rd=1.10:0.00 / mixed_ref=1 / me_range=16 / chroma_me=1 / trellis=2 / 8x8dct=1 / cqm=0 / deadzone=21,11 / fast_pskip=0 / chroma_qp_offset=-2 / threads=12 / sliced_threads=0 / nr=0 / decimate=0 / interlaced=0 / constrained_intra=0 / bframes=8 / b_pyramid=2 / b_adapt=2 / b_bias=0 / direct=3 / weightb=1 / open_gop=0 / weightp=2 / keyint=250 / keyint_min=23 / scenecut=40 / intra_refresh=0 / rc=2pass / mbtree=0 / bitrate=13000 / ratetol=1.0 / qcomp=0.60 / qpmin=10 / qpmax=51 / qpstep=4 / cplxblur=20.0 / qblur=0.5 / ip_ratio=1.40 / pb_ratio=1.30 / aq=1:0.90
Audio #1
ID                               : 2
Format                           : AC-3
Format/Info                      : Audio Coding 3
Codec ID                         : A_AC3
Duration                         : 1h 44mn
Bit rate mode                    : Constant
Bit rate                         : 640 Kbps
Channel(s)                       : 6 channels
Channel positions                : Front: L C R, Surround: L R, LFE
Sampling rate                    : 48.0 KHz
Stream size                      : 476 MiB (4%)
Title                            : дубляж [ac3 6ch 640 kbps]
Language                         : Russian
Audio #2
ID                               : 3
Format                           : DTS
Format/Info                      : Digital Theater Systems
Codec ID                         : A_DTS
Duration                         : 1h 44mn
Bit rate mode                    : Constant
Bit rate                         : 1 510 Kbps
Channel(s)                       : 6 channels
Channel positions                : Front: L C R, Surround: L R, LFE
Sampling rate                    : 48.0 KHz
Resolution                       : 24 bits
Stream size                      : 1.10 GiB (10%)
Title                            : original [dts 6ch 1509 kbps]
Audio #3
ID                               : 4
Format                           : AC-3
Format/Info                      : Audio Coding 3
Format profile                   : Dolby Digital
Codec ID                         : A_AC3
Duration                         : 1h 44mn
Bit rate mode                    : Constant
Bit rate                         : 192 Kbps
Channel(s)                       : 2 channels
Channel positions                : L R
Sampling rate                    : 48.0 KHz
Stream size                      : 143 MiB (1%)
Title                            : commentary [ac3 2ch 192 kbps]
Text #1
ID                               : 5
Format                           : UTF-8
Codec ID                         : S_TEXT/UTF8
Codec ID/Info                    : UTF-8 Plain Text
Title                            : forced
Language                         : Russian
Text #2
ID                               : 6
Format                           : UTF-8
Codec ID                         : S_TEXT/UTF8
Codec ID/Info                    : UTF-8 Plain Text
Language                         : Ukrainian
Text #3
ID                               : 7
Format                           : UTF-8
Codec ID                         : S_TEXT/UTF8
Codec ID/Info                    : UTF-8 Plain Text
Text #4
ID                               : 8
Format                           : UTF-8
Codec ID                         : S_TEXT/UTF8
Codec ID/Info                    : UTF-8 Plain Text
Title                            : forced
Text #5
ID                               : 9
Format                           : UTF-8
Codec ID                         : S_TEXT/UTF8
Codec ID/Info                    : UTF-8 Plain Text
Title                            : commentary
Text #6
ID                               : 10
Format                           : UTF-8
Codec ID                         : S_TEXT/UTF8
Codec ID/Info                    : UTF-8 Plain Text
Language                         : French
Text #7
ID                               : 11
Format                           : UTF-8
Codec ID                         : S_TEXT/UTF8
Codec ID/Info                    : UTF-8 Plain Text
Language                         : Spanish
Menu
00:00:00.000                     : en:00:00:00.000
00:07:26.613                     : en:00:07:26.613
00:10:24.165                     : en:00:10:24.165
00:17:12.782                     : en:00:17:12.782
00:25:20.436                     : en:00:25:20.436
00:32:15.559                     : en:00:32:15.559
00:39:14.310                     : en:00:39:14.310
00:44:43.806                     : en:00:44:43.806
00:50:41.372                     : en:00:50:41.372
00:57:54.137                     : en:00:57:54.137
01:04:52.221                     : en:01:04:52.221
01:07:39.806                     : en:01:07:39.806
01:13:54.054                     : en:01:13:54.054
01:21:13.076                     : en:01:21:13.076
01:27:20.485                     : en:01:27:20.485
01:31:32.820                     : en:01:31:32.820

Скриншоты:

Яндекс.Метрика
Рейтинг@Mail.ru