Франкенштейн / Mary Shelley's Frankenstein (1994) BDRip [720p]

 

Создавать темы 27-Авг-2014 21:06

-Франкенштейн / Mary Shelley's Frankenstein (1994) BDRip- Год выпуска: 1994
Производство: США, Япония, Великобритания
Жанр: Ужасы, Фантастика, Драма
Перевод: Дублированный, Многоголосый закадровый, Одноголосый закадровый
Субтитры: Вшитые (отключаемые)
Язык субтитров: Русские, английские
Режиссер: Кеннет Брана
Актеры: Роберт Де Ниро, Кеннет Брана, Хелена Бонэм Картер, Том Халс, Эйдан Куинн, Джон Клиз, Иэн Холм, Ричард Брайерс, Роберт Харди, Шери Лунги, Селия Имри, Тревин МакДауэлл, Марк Хэдфилд
Описание фильма:
Этот фильм — экранизация знаменитого готического романа Мэри Шелли о чудовище, созданном гениальным доктором Франкенштейном, признана критиками самой страшной из всех киноверсий книги. Продюсер фильма Френсис Коппола и режиссер Кеннет Брана, признанные мастера жанра создали по-настоящему гипнотическое зрелище о похождениях ужасного монстра, в роли которого выступил Роберт Де Ниро, еще раз продемонстрировавший свой уникальный дар — завораживать зрителей и заставлять трепетать от страха их сердца.
Продолжительность: 02:03:10
Качество видео: BDRip
Видеокодек: MPEG-4 AVC/H.264
Битрейт видео: ~ 5 897 Kbps
Размер кадра: 1280x692
Аудио 1: Русский AC3, 3/2 (L,C,R,l,r) + LFE ch, ~384.00 kbps avg | Дубляж
Аудио 2: Украинский DTS, 3/2 (L,C,R,l,r) + LFE ch, ~1536.00 kbps avg | Многоголосый закадровый, Новый канал
Аудио 3: Русский DTS, 3/2 (L,C,R,l,r) + LFE ch, ~1536.00 kbps avg | Одноголосый закадровый, А.Гаврилов
Аудио 4: Английский DTS, 3/2 (L,C,R,l,r) + LFE ch, ~1536.00 kbps avg-

MediaInfo:

General
Complete name                    : E:\Mary.Shelley's.Frankenstein.1994.720p.mkv
Format                           : Matroska
File size                        : 9.49 GiB
Duration                         : 2h 3mn
Overall bit rate                 : 11.0 Mbps
Movie name                       : Mary Shelley's Frankenstein (1994)
Encoded date                     : UTC 2009-10-17 17:13:12
Writing application              : mkvmerge v2.9.7 ('Tenderness') built on Jul  1 2009 18:43:35
Writing library                  : libebml v0.7.7 + libmatroska v0.8.1
Video
ID                               : 1
Format                           : AVC
Format/Info                      : Advanced Video Codec
Format profile                   : [url=mailto:[email protected]][email protected][/url]
Format settings, CABAC           : Yes
Format settings, ReFrames        : 6 frames
Muxing mode                      : Container [email protected]
Codec ID                         : V_MPEG4/ISO/AVC
Duration                         : 2h 3mn
Bit rate                         : 5 897 Kbps
Nominal bit rate                 : 6 114 Kbps
Width                            : 1 280 pixels
Height                           : 692 pixels
Display aspect ratio             : 1.850
Frame rate                       : 23.976 fps
Resolution                       : 8 bits
Colorimetry                      : 4:2:0
Scan type                        : Progressive
Bits/(Pixel*Frame)               : 0.278
Stream size                      : 5.07 GiB (53%)
Writing library                  : x264 core 77 r1292M e381f6d
Encoding settings                : cabac=1 / ref=6 / deblock=1:-3:-3 / analyse=0x3:0x113 / me=umh / subme=9 / psy=1 / psy_rd=1.0:0.1 / mixed_ref=1 / me_range=32 / chroma_me=1 / trellis=2 / 8x8dct=1 / cqm=0 / deadzone=21,11 / chroma_qp_offset=-3 / threads=12 / nr=0 / decimate=1 / mbaff=0 / constrained_intra=0 / bframes=6 / b_pyramid=0 / b_adapt=2 / b_bias=0 / direct=3 / wpredb=1 / keyint=250 / keyint_min=25 / scenecut=40 / rc_lookahead=50 / rc=2pass / mbtree=1 / bitrate=6114 / ratetol=1.0 / qcomp=0.60 / qpmin=10 / qpmax=51 / qpstep=4 / cplxblur=20.0 / qblur=0.5 / ip_ratio=1.40 / aq=1:0.80
Language                         : English
Audio #1
ID                               : 2
Format                           : AC-3
Format/Info                      : Audio Coding 3
Codec ID                         : A_AC3
Duration                         : 2h 3mn
Bit rate mode                    : Constant
Bit rate                         : 384 Kbps
Channel(s)                       : 6 channels
Channel positions                : Front: L C R, Surround: L R, LFE
Sampling rate                    : 48.0 KHz
Stream size                      : 338 MiB (3%)
Title                            : AC3 5.1 @ 384 kbps - Дублированный
Language                         : Russian
Audio #2
ID                               : 3
Format                           : DTS
Format/Info                      : Digital Theater Systems
Codec ID                         : A_DTS
Duration                         : 2h 3mn
Bit rate mode                    : Constant
Bit rate                         : 1 510 Kbps
Channel(s)                       : 6 channels
Channel positions                : Front: L C R, Surround: L R, LFE
Sampling rate                    : 48.0 KHz
Resolution                       : 24 bits
Stream size                      : 1.30 GiB (14%)
Title                            : DTS 5.1 @ 1536 kbps - Многоголосый закадровый, Новый канал
Language                         : Ukrainian
Audio #3
ID                               : 4
Format                           : DTS
Format/Info                      : Digital Theater Systems
Codec ID                         : A_DTS
Duration                         : 2h 3mn
Bit rate mode                    : Constant
Bit rate                         : 1 510 Kbps
Channel(s)                       : 6 channels
Channel positions                : Front: L C R, Surround: L R, LFE
Sampling rate                    : 48.0 KHz
Resolution                       : 24 bits
Stream size                      : 1.30 GiB (14%)
Title                            : DTS 5.1 @ 1536 kbps - Одноголосый закадровый, А.Гаврилов
Language                         : Russian
Audio #4
ID                               : 5
Format                           : DTS
Format/Info                      : Digital Theater Systems
Codec ID                         : A_DTS
Duration                         : 2h 3mn
Bit rate mode                    : Constant
Bit rate                         : 1 510 Kbps
Channel(s)                       : 6 channels
Channel positions                : Front: L C R, Surround: L R, LFE
Sampling rate                    : 48.0 KHz
Resolution                       : 24 bits
Stream size                      : 1.30 GiB (14%)
Title                            : DTS 5.1 @ 1536 kbps
Language                         : English
Text #1
ID                               : 6
Format                           : UTF-8
Codec ID                         : S_TEXT/UTF8
Codec ID/Info                    : UTF-8 Plain Text
Language                         : Russian
Text #2
ID                               : 7
Format                           : UTF-8
Codec ID                         : S_TEXT/UTF8
Codec ID/Info                    : UTF-8 Plain Text
Language                         : English
Menu
00:00:00.000                     : en:Chapter 01
00:07:31.785                     : en:Chapter 02
00:13:46.617                     : en:Chapter 03
00:20:19.051                     : en:Chapter 04
00:30:20.360                     : en:Chapter 05
00:35:45.101                     : en:Chapter 06
00:43:30.066                     : en:Chapter 07
00:50:27.233                     : en:Chapter 08
00:56:47.529                     : en:Chapter 09
01:03:01.152                     : en:Chapter 10
01:13:12.513                     : en:Chapter 11
01:21:36.809                     : en:Chapter 12
01:30:09.821                     : en:Chapter 13
01:37:28.968                     : en:Chapter 14
01:44:06.073                     : en:Chapter 15
01:52:59.982                     : en:Chapter 16

Скриншоты:

Яндекс.Метрика
Рейтинг@Mail.ru