[ Сегодня на трекере фрилич! Идет свободное скачивание без начисления Download ]

Виноваты звезды / The Fault in Our Stars (2014) BDRip [1080p] [Extended Cut]

 

Создавать темы 27-Авг-2014 20:39

-Виноваты звезды / The Fault in Our Stars (2014) BDRip- Год выпуска: 2014
Производство: США
Жанр: Драма, Мелодрама
Описание фильма: Хэйзел больна раком. Несмотря на то, что болезнь временно отступила, девушка не чувствует ни капли радости. Она ходит в группу поддержки, где однажды знакомится с Августом Уотерсом и моментально влюбляется в него. Август и Хэйзел отправляются в полное страсти и жизни путешествие, которое лишний раз покажет им, что весь смысл жизни можно найти в любом ее отрезке.
Режиссер: Джош Бун
Актеры: Шэйлин Вудли, Энсел Эльгорт, Лора Дерн, Сэм Трэммелл, Нат Вулф, Уиллем Дефо, Лотте Вербеек, Ана Дела Крус, Рэнди Ковиц. Тони Саладна
Продолжительность: 02:12:53
Качество видео: BDRip [profile-LQ]
Перевод: Любительский двухголосый, закадровый
Субтитры: Отсутствуют
Дата мировой премьеры: 16 мая 2014
Дата российской премьеры: 4 сентября 2014
Дата выхода DVD / Blu-Ray релиза: 16 октября 2014
Видео: MPEG-4 AVC, 9087 Кбит/с, 1920x1040
Аудио 1: AC3, 384 kbps, 6 каналов, 48 kHz, 16-bit [Русский - Любительский двухголосый - Savetig Studios]
Аудио 2: DTS, 1509 kbps, 6 каналов, 48 kHz, 24-bit [Английский - Оригинал]

MediaInfo

Формат                                   : Matroska
Версия формата                           : Version 4 / Version 2
Размер файла                             : 10,2 Гбайт
Продолжительность                        : 2 ч. 12 м.
Общий поток                              : 11,0 Мбит/сек
Дата кодирования                         : UTC 2014-08-27 06:45:00
Программа кодирования                    : mkvmerge v6.6.0 ('The Edge Of The In Between') built on Dec  1 2013 17:55:00
Библиотека кодирования                   : libebml v1.3.0 + libmatroska v1.4.1
Видео
Идентификатор                            : 1
Формат                                   : AVC
Формат/Информация                        : Advanced Video Codec
Профиль формата                          : [url=mailto:[email protected]][email protected][/url]
Параметр CABAC формата                   : Да
Параметр ReFrames формата                : 4 кадра
Идентификатор кодека                     : V_MPEG4/ISO/AVC
Продолжительность                        : 2 ч. 12 м.
Битрейт                                  : 9087 Кбит/сек
Ширина                                   : 1920 пикселей
Высота                                   : 1040 пикселей
Соотношение сторон                       : 1,85:1
Режим частоты кадров                     : Постоянный
Частота кадров                           : 23,976 кадра/сек
Цветовое пространство                    : YUV
Субдискретизация насыщенности            : 4:2:0
Битовая глубина                          : 8 бит
Тип развёртки                            : Прогрессивная
Бит/(Пиксели*Кадры)                      : 0.190
Размер потока                            : 8,23 Гбайт (81%)
Библиотека кодирования                   : x264 core 142 r2431 ac76440
Настройки программы                      : cabac=1 / ref=4 / deblock=1:0:0 / analyse=0x3:0x133 / me=umh / subme=7 / psy=1 / psy_rd=1.00:0.00 / mixed_ref=1 / me_range=16 / chroma_me=1 / trellis=1 / 8x8dct=1 / cqm=0 / deadzone=21,11 / fast_pskip=0 / chroma_qp_offset=-2 / threads=18 / lookahead_threads=3 / sliced_threads=0 / nr=0 / decimate=1 / interlaced=0 / bluray_compat=0 / constrained_intra=0 / bframes=3 / b_pyramid=2 / b_adapt=1 / b_bias=0 / direct=1 / weightb=1 / open_gop=0 / weightp=2 / keyint=250 / keyint_min=23 / scenecut=40 / intra_refresh=0 / rc_lookahead=40 / rc=2pass / mbtree=1 / bitrate=9087 / ratetol=1.0 / qcomp=0.60 / qpmin=0 / qpmax=69 / qpstep=4 / cplxblur=20.0 / qblur=0.5 / ip_ratio=1.40 / aq=1:1.00
Язык                                     : English
Default                                  : Да
Forced                                   : Нет
Аудио #1
Идентификатор                            : 2
Формат                                   : AC-3
Формат/Информация                        : Audio Coding 3
Расширение режима                        : CM (complete main)
Параметр Endianness формата              : Big
Идентификатор кодека                     : A_AC3
Продолжительность                        : 2 ч. 12 м.
Вид битрейта                             : Постоянный
Битрейт                                  : 384 Кбит/сек
Каналы                                   : 6 каналов
Расположение каналов                     : Front: L C R, Side: L R, LFE
Частота                                  : 48,0 КГц
Битовая глубина                          : 16 бит
Метод сжатия                             : С потерями
Размер потока                            : 365 Мбайт (3%)
Заголовок                                : DVO
Язык                                     : Russian
Default                                  : Да
Forced                                   : Нет
Аудио #2
Идентификатор                            : 3
Формат                                   : DTS
Формат/Информация                        : Digital Theater Systems
Режим                                    : 16
Параметр Endianness формата              : Big
Идентификатор кодека                     : A_DTS
Продолжительность                        : 2 ч. 12 м.
Вид битрейта                             : Постоянный
Битрейт                                  : 1509 Кбит/сек
Каналы                                   : 6 каналов
Расположение каналов                     : Front: L C R, Side: L R, LFE
Частота                                  : 48,0 КГц
Битовая глубина                          : 24 бит
Метод сжатия                             : С потерями
Размер потока                            : 1,40 Гбайт (14%)
Заголовок                                : Original
Язык                                     : English
Default                                  : Нет
Forced                                   : Нет
Меню
00:00:00.000                             : en:00:00:00.000
00:02:34.529                             : en:00:02:34.529
00:06:25.594                             : en:00:06:25.594
00:13:01.906                             : en:00:13:01.906
00:15:07.615                             : en:00:15:07.615
00:18:12.591                             : en:00:18:12.591
00:21:05.681                             : en:00:21:05.681
00:24:59.790                             : en:00:24:59.790
00:28:35.380                             : en:00:28:35.380
00:31:30.806                             : en:00:31:30.806
00:38:12.874                             : en:00:38:12.874
00:41:51.217                             : en:00:41:51.217
00:49:19.832                             : en:00:49:19.832
00:56:41.606                             : en:00:56:41.606
01:02:27.327                             : en:01:02:27.327
01:05:40.979                             : en:01:05:40.979
01:08:17.427                             : en:01:08:17.427
01:14:57.743                             : en:01:14:57.743
01:20:58.479                             : en:01:20:58.479
01:25:30.333                             : en:01:25:30.333
01:29:04.339                             : en:01:29:04.339
01:34:50.476                             : en:01:34:50.476
01:43:59.024                             : en:01:43:59.024
01:46:27.089                             : en:01:46:27.089
01:52:18.482                             : en:01:52:18.482
01:57:25.455                             : en:01:57:25.455
02:01:09.304                             : en:02:01:09.304
02:06:16.402                             : en:02:06:16.402

Скриншоты:

Яндекс.Метрика
Рейтинг@Mail.ru