[ Сегодня на трекере фрилич! Идет свободное скачивание без начисления Download ]

Неизвестный / Unknown (2011) BDRip [1080p]

 

Создавать темы 27-Авг-2014 20:32

-Неизвестный / Unknown (2011) BDRip- Год выпуска: 2011
Производство: США, Германия, Канада, Франция, Япония, Великобритания
Жанр: Триллер, Драма, Криминал
Перевод: Дублированный, Одноголосый закадровый
Субтитры: Вшитые (отключаемые)
Язык субтитров: Русские (forced R5), Русские (forced Voronin), Русские (Full R5), Русские (Full Voronin), Английские
Режиссер: Жауме Серра
Актеры: Лиам Нисон, Дайан Крюгер, Дженьюэри Джонс, Эйдан Куинн, Бруно Ганц, Фрэнк Ланджелла, Себастьян Кох, Оливье Шнайдер, Стипе Эрчег, Райнер Бок
Описание фильма:
История повествует о мужчине, который после пробуждения от комы обнаруживает, что его личность присвоена другим, и понимает, что никто, даже собственная жена, не верит ему. И тогда при помощи незнакомой молодой женщины-таксистки герой стремится доказать, кто он такой.
Продолжительность: 01:53:11
Качество видео: BDRip
Видеокодек: MPEG-4 AVC/H.264
Битрейт видео: ~16.2 Mbps
Размер кадра: 1920x800
Аудио 1: Русский AC3, 3/2 (L,C,R,l,r) + LFE ch, ~384.00 kbps avg | Дубляж, R5
Аудио 2: Русский DTS, 3/2 (L,C,R,l,r) + LFE ch, ~1509 kbps avg | Одноголосый закадровый, А. Гаврилов
Аудио 3: Украинский AC3, 3/2 (L,C,R,l,r) + LFE ch, ~384.00 kbps avg | Дубляж, R5
Аудио 4: Английский DTS, 3/2 (L,C,R,l,r) + LFE ch, 1509 kbps-

MediaInfo:

General
Complete name                    : E:\Unknown.2011.1080p
Format                           : Matroska
File size                        : 16.1 GiB
Duration                         : 1h 53mn
Overall bit rate                 : 20.4 Mbps
Movie name                       : Unknown (2011)
Encoded date                     : UTC 2014-05-28 13:10:47
Writing application              : mkvmerge v5.7.0 ('The Whirlwind') built on Jul  8 2012 20:08:51
Writing library                  : libebml v1.2.3 + libmatroska v1.3.0
Video
ID                               : 1
Format                           : AVC
Format/Info                      : Advanced Video Codec
Format profile                   : [url=mailto:[email protected]][email protected][/url]
Format settings, CABAC           : Yes
Format settings, ReFrames        : 5 frames
Muxing mode                      : Container [email protected]
Codec ID                         : V_MPEG4/ISO/AVC
Duration                         : 1h 53mn
Bit rate                         : 16.2 Mbps
Width                            : 1 920 pixels
Height                           : 800 pixels
Display aspect ratio             : 2.40:1
Frame rate                       : 23.976 fps
Resolution                       : 8 bits
Colorimetry                      : 4:2:0
Scan type                        : Progressive
Bits/(Pixel*Frame)               : 0.439
Stream size                      : 12.8 GiB (79%)
Writing library                  : x264 core 118 r2085 8a62835
Encoding settings                : cabac=1 / ref=5 / deblock=1:-3:-3 / analyse=0x3:0x113 / me=tesa / subme=11 / psy=1 / psy_rd=1.00:0.05 / mixed_ref=1 / me_range=16 / chroma_me=1 / trellis=2 / 8x8dct=1 / cqm=0 / deadzone=21,11 / fast_pskip=0 / chroma_qp_offset=-3 / threads=12 / sliced_threads=0 / nr=0 / decimate=0 / interlaced=0 / bluray_compat=0 / constrained_intra=0 / bframes=7 / b_pyramid=2 / b_adapt=2 / b_bias=0 / direct=3 / weightb=1 / open_gop=0 / weightp=2 / keyint=250 / keyint_min=23 / scenecut=40 / intra_refresh=0 / rc=crf / mbtree=0 / crf=18.4 / qcomp=0.70 / qpmin=0 / qpmax=69 / qpstep=4 / ip_ratio=1.40 / pb_ratio=1.30 / aq=1:0.70
Matrix coefficients              : BT.709-5, BT.1361, IEC 61966-2-4 709, SMPTE RP177
Audio #1
ID                               : 2
Format                           : AC-3
Format/Info                      : Audio Coding 3
Codec ID                         : A_AC3
Duration                         : 1h 53mn
Bit rate mode                    : Constant
Bit rate                         : 384 Kbps
Channel(s)                       : 6 channels
Channel positions                : Front: L C R, Surround: L R, LFE
Sampling rate                    : 48.0 KHz
Stream size                      : 311 MiB (2%)
Title                            : |Дубляж, R5|
Language                         : Russian
Audio #2
ID                               : 3
Format                           : AC-3
Format/Info                      : Audio Coding 3
Codec ID                         : A_AC3
Duration                         : 1h 53mn
Bit rate mode                    : Constant
Bit rate                         : 384 Kbps
Channel(s)                       : 6 channels
Channel positions                : Front: L C R, Surround: L R, LFE
Sampling rate                    : 48.0 KHz
Stream size                      : 311 MiB (2%)
Title                            : |Дубляж, R5|
Language                         : Ukrainian
Audio #3
ID                               : 4
Format                           : DTS
Format/Info                      : Digital Theater Systems
Codec ID                         : A_DTS
Duration                         : 1h 53mn
Bit rate mode                    : Constant
Bit rate                         : 1 510 Kbps
Channel(s)                       : 6 channels
Channel positions                : Front: L C R, Surround: L R, LFE
Sampling rate                    : 48.0 KHz
Resolution                       : 24 bits
Stream size                      : 1.19 GiB (7%)
Title                            : |Одноголосый закадровый, А.Гаврилов|
Language                         : Russian
Audio #4
ID                               : 5
Format                           : DTS
Format/Info                      : Digital Theater Systems
Codec ID                         : A_DTS
Duration                         : 1h 53mn
Bit rate mode                    : Constant
Bit rate                         : 1 510 Kbps
Channel(s)                       : 6 channels
Channel positions                : Front: L C R, Surround: L R, LFE
Sampling rate                    : 48.0 KHz
Resolution                       : 24 bits
Stream size                      : 1.19 GiB (7%)
Text #1
ID                               : 6
Format                           : UTF-8
Codec ID                         : S_TEXT/UTF8
Codec ID/Info                    : UTF-8 Plain Text
Title                            : Forced R5
Language                         : Russian
Text #2
ID                               : 7
Format                           : UTF-8
Codec ID                         : S_TEXT/UTF8
Codec ID/Info                    : UTF-8 Plain Text
Title                            : Forced Voronine
Language                         : Russian
Text #3
ID                               : 8
Format                           : UTF-8
Codec ID                         : S_TEXT/UTF8
Codec ID/Info                    : UTF-8 Plain Text
Title                            : Full R5
Language                         : Russian
Text #4
ID                               : 9
Format                           : UTF-8
Codec ID                         : S_TEXT/UTF8
Codec ID/Info                    : UTF-8 Plain Text
Title                            : Full Voronine
Language                         : Russian
Text #5
ID                               : 10
Format                           : UTF-8
Codec ID                         : S_TEXT/UTF8
Codec ID/Info                    : UTF-8 Plain Text
Menu #1
00:00:00.000                     : en:00:00:00.000
00:05:16.983                     : en:00:05:16.983
00:14:02.425                     : en:00:14:02.425
00:22:22.550                     : en:00:22:22.550
00:32:13.223                     : en:00:32:13.223
00:41:27.819                     : en:00:41:27.819
00:47:13.914                     : en:00:47:13.914
00:54:55.876                     : en:00:54:55.876
01:01:56.004                     : en:01:01:56.004
01:12:50.116                     : en:01:12:50.116
01:21:07.571                     : en:01:21:07.571
01:27:12.727                     : en:01:27:12.727
01:35:19.631                     : en:01:35:19.631
01:41:18.155                     : en:01:41:18.155
Menu #2
00:00:00.000                     : en:00:00:00.000
00:09:15.388                     : en:00:09:15.388
00:19:32.588                     : en:00:19:32.588
00:29:58.839                     : en:00:29:58.839
00:40:44.776                     : en:00:40:44.776
00:49:34.513                     : en:00:49:34.513
01:02:26.701                     : en:01:02:26.701
01:10:14.710                     : en:01:10:14.710
01:20:00.796                     : en:01:20:00.796
01:31:05.960                     : en:01:31:05.960
01:42:33.856                     : en:01:42:33.856
01:48:35.801                     : en:01:48:35.801

Скриншоты:

Яндекс.Метрика
Рейтинг@Mail.ru