[ Сегодня на трекере фрилич! Идет свободное скачивание без начисления Download ]

Красная линия / Red Line (Роборт Кирбюсон) [2013, Триллер, HDTVRip-AVC] от MediaClub | P2

 

Создавать темы 03-Ноя-2013 18:55

Информация о фильме
Название: Красная линия
Оригинальное название: Red Line
Год выхода: 2013
Жанр: Триллер
Режиссер: Роборт Кирбюсон
В ролях: Николь Гэйл Андерсон, Джон Биллингсли, Кунал Шарма, Кевин Сайзмор, Джозеф Уильямсон, Марк Сауль, Кина Фергюсон, Renee Sly, Ким Джексон, Анна Маганини
О фильме:
После теракта 11 сентября против США было предпринято множество попыток проведения терактов. Самые уязвимые цели — поезда и станции метро, где проверки невозможны из-за большой протяженности железных дорог и громадного количества пассажиров. В тот день, целью атаки стал поезд подземки Лос-Анджелеса. Но как спастись выжившим пассажирам, когда среди них уцелевший террорист, приберёгший ещё одну бомбу…


Страна: США
Студия: Yellow Line Studio
Продолжительность: 01:23:20
Перевод: Профессиональный двухголосый (НТВ+)
Файл
Кодек: MPEG-4 AVC
Качество: HDTVRip (AVC)
Видео: 2200 Кбит/с, 1024x576, 25.000 кадр/с
Звук:
Аудио #1: Русский (AC3, 6 ch, 448 Кбит/с)
Аудио #2: Английский (AC3, 6 ch, 384 Кбит/с)
Семпл

Скриншоты

MI

Общее
Полное имя : Krasnaja.linija.2013.x264.HDTVRip(AVC).MediaClub.mkv
Формат : Matroska
Версия формата : Version 2
Размер файла : 1,77 Гбайт
Продолжительность : 1 ч. 23 м.
Общий поток : 3047 Кбит/сек
Дата кодирования : UTC 2013-11-03 14:43:43
Программа кодирования : mkvmerge v5.4.0 ('Piper') built on Mar 10 2012 13:34:39
Библиотека кодирования : libebml v1.2.3 + libmatroska v1.3.0
Видео
Идентификатор : 1
Формат : AVC
Формат/Информация : Advanced Video Codec
Профиль формата : [email protected]
Параметр CABAC формата : Да
Параметр ReFrames формата : 9 кадров
Идентификатор кодека : V_MPEG4/ISO/AVC
Продолжительность : 1 ч. 23 м.
Битрейт : 2200 Кбит/сек
Ширина : 1024 пикселя
Высота : 576 пикселей
Соотношение сторон : 16:9
Режим частоты кадров : Постоянный
Частота кадров : 25,000 кадров/сек
Цветовое пространство : YUV
Субдискретизация насыщенности : 4:2:0
Битовая глубина : 8 бит
Тип развёртки : Прогрессивная
Бит/(Пиксели*Кадры) : 0.149
Размер потока : 1,25 Гбайт (71%)
Библиотека кодирования : x264 core 125 r2208 d9d2288
Настройки программы : cabac=1 / ref=9 / deblock=1:-2:-2 / analyse=0x3:0x133 / me=umh / subme=10 / psy=1 / psy_rd=1.00:0.15 / mixed_ref=1 / me_range=32 / chroma_me=1 / trellis=2 / 8x8dct=1 / cqm=0 / deadzone=21,11 / fast_pskip=0 / chroma_qp_offset=-3 / threads=6 / lookahead_threads=1 / sliced_threads=0 / nr=0 / decimate=0 / interlaced=0 / bluray_compat=0 / constrained_intra=0 / bframes=8 / b_pyramid=2 / b_adapt=2 / b_bias=0 / direct=3 / weightb=1 / open_gop=0 / weightp=2 / keyint=250 / keyint_min=25 / scenecut=40 / intra_refresh=0 / rc=2pass / mbtree=0 / bitrate=2200 / ratetol=1.0 / qcomp=0.60 / qpmin=0 / qpmax=69 / qpstep=4 / cplxblur=20.0 / qblur=0.5 / ip_ratio=1.40 / pb_ratio=1.30 / aq=1:0.80
Default : Да
Forced : Нет
Аудио #1
Идентификатор : 2
Формат : AC-3
Формат/Информация : Audio Coding 3
Расширение режима : CM (complete main)
Параметр Endianness формата : Big
Идентификатор кодека : A_AC3
Продолжительность : 1 ч. 23 м.
Вид битрейта : Постоянный
Битрейт : 448 Кбит/сек
Каналы : 6 каналов
Расположение каналов : Front: L C R, Side: L R, LFE
Частота : 48,0 КГц
Битовая глубина : 16 бит
Метод сжатия : С потерями
Размер потока : 267 Мбайт (15%)
Язык : Russian
Default : Да
Forced : Нет
Аудио #2
Идентификатор : 3
Формат : AC-3
Формат/Информация : Audio Coding 3
Расширение режима : CM (complete main)
Параметр Endianness формата : Big
Идентификатор кодека : A_AC3
Продолжительность : 1 ч. 23 м.
Вид битрейта : Постоянный
Битрейт : 384 Кбит/сек
Каналы : 6 каналов
Расположение каналов : Front: L C R, Side: L R, LFE
Частота : 48,0 КГц
Битовая глубина : 16 бит
Метод сжатия : С потерями
Задержка видео : 22 мс.
Размер потока : 229 Мбайт (13%)
Язык : English
Default : Нет
Forced : Нет

_________________
Подпись отключена за нарушение правил форума
Яндекс.Метрика
Рейтинг@Mail.ru