[ Сегодня на трекере фрилич! Идет свободное скачивание без начисления Download ]

Маринина Александра - Ангелы на льду не выживают (1 том) [2014 г., Валерий Захарьев, MP3, 09:52:23]

 

Создавать темы 26-Авг-2014 05:04

-Ангелы на льду не выживают (1 том)-- Год выпуска: 2014 г.
Автор: Маринина Александра
Исполнитель: Валерий Захарьев
Жанр: детектив
Издательство: Аудиокнига
Тип аудиокниги: аудиокнига
Аудио кодек: MP3
Битрейт аудио: 50-52 kbps
Время звучания: 09:52:23

Media Info

Общее
Полное имя : D:\Torrent\book_audio\Angel\01.mp3
Формат : MPEG Audio
Размер файла : 10,8 Мбайт
Продолжительность : 29 м.
Режим общего битрейта : Переменный
Общий поток : 50,9 Кбит/сек
Альбом : Ангелы на льду не выживают. Том 1
Альбом/Исполнитель : А.Маринина
Трек : 01
Исполнитель : А.Маринина
Библиотека кодирования : LAME3.99r
Аудио
Формат : MPEG Audio
Версия формата : Version 1
Профиль формата : Layer 3
Режим : Joint stereo
Расширение режима : MS Stereo
Продолжительность : 29 м.
Вид битрейта : Переменный
Битрейт : 50,9 Кбит/сек
Минимальный битрейт : 32,0 Кбит/сек
Каналы : 2 канала
Частота : 44,1 КГц
Метод сжатия : С потерями
Размер потока : 10,8 Мбайт (100%)
Библиотека кодирования : LAME3.99r
Настройки программы : -m j -V 7 -q 5 -lowpass 15.6 --vbr-new -b 32
Общее
Полное имя : D:\Torrent\book_audio\Angel\08.mp3
Формат : MPEG Audio
Размер файла : 7,88 Мбайт
Продолжительность : 20 м.
Режим общего битрейта : Переменный
Общий поток : 52,8 Кбит/сек
Альбом : Ангелы на льду не выживают. Том 1
Альбом/Исполнитель : А.Маринина
Трек : 08
Исполнитель : А.Маринина
Библиотека кодирования : LAME3.99r
Аудио
Формат : MPEG Audio
Версия формата : Version 1
Профиль формата : Layer 3
Режим : Joint stereo
Расширение режима : MS Stereo
Продолжительность : 20 м.
Вид битрейта : Переменный
Битрейт : 52,8 Кбит/сек
Минимальный битрейт : 32,0 Кбит/сек
Каналы : 2 канала
Частота : 44,1 КГц
Метод сжатия : С потерями
Размер потока : 7,88 Мбайт (100%)
Библиотека кодирования : LAME3.99r
Настройки программы : -m j -V 7 -q 5 -lowpass 15.6 --vbr-new -b 32

Описание

Новый захватывающий роман Александры Марининой – это одновременно остросюжетная психологическая драма и серьезный разговор о коррумпированности большого спорта. Прыжок. Еще прыжок. Холодная сталь коньков молнией рассекает голубой лед… Фигурное катание – красивый и изящный спорт. Миллионы людей с замиранием сердца внимают выступлениям наших фигуристов. И вот, в этот сказочный мир мрачной тенью врывается жестокое убийство. Застрелен Михаил Валентинович Болтенков – тренер высшей категории, человек-легенда, мастер, взрастивший не одного чемпиона. Тело обнаружено у дома его коллеги Валерия Ламзина. Свидетели подтверждают: тренеры встречались перед убийством, они ругались и угрожали друг другу… Дело, как говорится, «в шляпе». Но у Насти Каменской и ее друзей с Петровки – Антона Сташиса и Романа Дзюбы – свое мнение на этот счет. Им открывается правда о бесчеловечностях и цинизме, пропитавших голубой лед. Лед, на котором ангелы не выживают.
Яндекс.Метрика
Рейтинг@Mail.ru