[ Сегодня на трекере фрилич! Идет свободное скачивание без начисления Download ]

Выжившая / Extant / Сезон: 1 / Серии: 1-8 из 13 (Пэрис Барклай / Paris Barclay) [2014 г., фантастика, триллер, драма, WEB-DL, 720p] MVO (NewStudio) + Original (Eng) [Обновляемая]

 

Создавать темы 26-Авг-2014 04:45

-Выжившая / Extant--
Производство: США
Жанр: фантастика, триллер, драма
Год выпуска: 2014 г.
Продолжительность: 00:42:00
Мировая премьера: 9 июля 2014
Российская премьера: 10 июля 2014
Перевод: Профессиональный (многоголосый, закадровый) [NewStudio]
Оригинальный аудиопоток: Английский
Режиссер: Пэрис Барклай / Paris Barclay, Мэтт Эрл Бисли / Matt Earl Beesley, Аллен Култер / Allen Coulter-В ролях:
Брэд Бейер, Холли Берри, Горан Вишнич, Пирс Гэнон, Камрин Менхейм, Тайлер Хилтон, Серджо Харфорд, Грэйс Гаммер, Майкл О’Нил, Жанетта Арнетт-Описание:
Футуристический триллер о женщине-астронавте, которая возвращается на Землю после космической экспедиции и пытается наладить отношения с семьей, но ее поступки загадочным образом изменяют ход истории всего человечества.
-
Качество видео: WEB-DL
Контейнер: MKV
Стандарт разрешения: 720p
Видео кодек: MPEG4 / AVC
Аудио кодек: AC3
Видео: 1280x720; 3 921 kbps; 23.976 fps
Аудио #1: 384 kbps; 6 ch; 48.0 kHz (Rus)
Аудио #2: 384 kbps; 6 ch; 48.0 kHz (Eng)

Media Info

General
Unique ID : 192923077979624179694995174145651805411 (0x9123A21EEDB10DC1867762A63C328CE3)
Complete name : D:\Torrents\Extant.s01.WEBDL.720p.NewStudio\Extant.s01e01.WEBDL.720p.NewStudio.TV.mkv
Format : Matroska
Format version : Version 4 / Version 2
File size : 1.37 GiB
Duration : 41mn 7s
Overall bit rate : 4 784 Kbps
Encoded date : UTC 2014-07-11 19:25:01
Writing application : mkvmerge v7.0.0 ('Where We Going') 64bit built on Jun 9 2014 15:16:27
Writing library : libebml v1.3.0 + libmatroska v1.4.1
DURATION : 00:41:07.328000000
NUMBER_OF_FRAMES : 77104
NUMBER_OF_BYTES : 118431744
_STATISTICS_WRITING_APP : mkvmerge v7.0.0 ('Where We Going') 64bit built on Jun 9 2014 15:16:27
_STATISTICS_WRITING_DATE_UTC : 2014-07-11 19:25:01
_STATISTICS_TAGS : BPS DURATION NUMBER_OF_FRAMES NUMBER_OF_BYTES
Video
ID : 1
Format : AVC
Format/Info : Advanced Video Codec
Format profile : [email protected]
Format settings, CABAC : No
Format settings, ReFrames : 2 frames
Codec ID : V_MPEG4/ISO/AVC
Duration : 41mn 7s
Bit rate : 3 921 Kbps
Width : 1 280 pixels
Height : 720 pixels
Display aspect ratio : 16:9
Frame rate mode : Constant
Frame rate : 23.976 fps
Color space : YUV
Chroma subsampling : 4:2:0
Bit depth : 8 bits
Scan type : Progressive
Bits/(Pixel*Frame) : 0.177
Stream size : 1.13 GiB (82%)
Language : English
Default : Yes
Forced : No
Color primaries : BT.709
Transfer characteristics : BT.709
Matrix coefficients : BT.709
Audio #1
ID : 2
Format : AC-3
Format/Info : Audio Coding 3
Mode extension : CM (complete main)
Format settings, Endianness : Big
Codec ID : A_AC3
Duration : 41mn 7s
Bit rate mode : Constant
Bit rate : 384 Kbps
Channel(s) : 6 channels
Channel positions : Front: L C R, Side: L R, LFE
Sampling rate : 48.0 KHz
Bit depth : 16 bits
Compression mode : Lossy
Stream size : 113 MiB (8%)
Language : Russian
Default : Yes
Forced : No
Audio #2
ID : 3
Format : AC-3
Format/Info : Audio Coding 3
Mode extension : CM (complete main)
Format settings, Endianness : Big
Codec ID : A_AC3
Duration : 41mn 7s
Bit rate mode : Constant
Bit rate : 384 Kbps
Channel(s) : 6 channels
Channel positions : Front: L C R, Side: L R, LFE
Sampling rate : 48.0 KHz
Bit depth : 16 bits
Compression mode : Lossy
Stream size : 113 MiB (8%)
Language : English
Default : No
Forced : No
--

Внимание! Раздача ведётся путём добавления новых серий!

Внимание! Раздача ведётся путём добавления новых серий; при каждом добавлении создётся новый торрент. Чтобы начать докачку новой серии, пользователям необходимо сделать следующее:
(1) остановить скачивание,
(2) удалить старый торрент у себя из клиента (старые серии удалять не надо),
(3) скачать новый торрент и запустить его у себя в клиенте вместо старого, при этом указать клиенту путь в старую папку куда и должно происходить скачивание новых серий.
Ваш клиент при этом должен произвести хеширование (проверку) старой папки (если не производит сам - помогите ему сделать это), и будет докачивать только те серии которых у вас ещё нет. Старые серии при этом не удаляются, а продолжают раздаваться!
Eсли вы уже удалили старые серии, то предотвратить повторную закачку старых серий можно, отжав галочку в соответствующих местах при запуске нового торрента.
--Добавлена 8-я серия--
Яндекс.Метрика
Рейтинг@Mail.ru