Поездка в Америку ( Путешествие в Америку ) / Coming to America (Джон Лэндис / John Landis) [1988 г., комедия, BDRip-AVC] AVO + original (Eng)

 

Создавать темы 26-Авг-2014 04:39

Поездка в Америку ( Путешествие в Америку ) / Coming to America
Год выпуска: 1988
Производство: США
Жанр: комедия
Продолжительность: 01:56:48
Перевод: Авторский (одноголосый, закадровый) А.Михалёв, В.Горчаков, М.Латышев, неизвестный
Оригинальный аудиопоток: английский
Режиссер: Джон Лэндис / John Landis
В ролях: Эдди Мерфи / Eddie Murphy, Арсенио Холл / Arsenio Hall, Сэмюэл Л. Джексон / Samuel L. Jackson, Джеймс Эрл Джоунс / James Earl Jones, Джон Эймос / John Amos, Мэдж Синклэр / Madge Sinclair, Ральф Беллами / Ralph Bellamy, Шари Хедли / Shari Headley, Пол Бэйтс / Paul Bates, Эллисон Дин / Allison Dean, Эрик Ла Саль / Eriq LaSalle, Луи Андерсон / Louie Anderson, Кэлвин Локхарт / Calvin Lockhart, Кьюба Гудинг-младший / Cuba Gooding, Jr. ...
Описание: Наследный принц африканского государства хочет сам найти себе жену и едет для этого в Америку. Там он представляется обычным человеком и поступает на работу в закусочную, так как его выбор пал на дочь хозяина.

Сэмпл ,
Качество видео: BDRip-AVC
Контейнер: MKV
Видео кодек: H.264
Аудио кодек: AC3
Видео: 3500 Kbps, 1024*576 pixels, 16:9, 23.976 fps
Аудио : AC3, 384 Kbps, 6 channels, 48.0 KHz, 16 bits - Михалёв
Аудио #2: AC3, 384 Kbps, 6 channels, 48.0 KHz, 16 bits - Горчаков
Аудио #3: AC3, 192 Kbps, 2 channels, 48.0 KHz, 16 bits - Латышев
Аудио #4: AC3, 192 Kbps, 2 channels, 48.0 KHz, 16 bits - Неизвестный
Аудио #5: AC3, 384 Kbps, 6 channels, 48.0 KHz, 16 bits - eng
Рипанул с этой раздачи [url=http://pirat.ca/viewtopic.php?t=116058][/url]Поездка в Америку ( Путешествие в Америку ) / Coming to America (Джон Лэндис / John Landis) [1988 г., Комедия, BDRip, 1080p] AVO ( А.Михалёв, В.Горчаков, М.Латышев ) + VO + original (Eng)

Media Info

I:\PIRAT.CA\РАЗДАЧИ\Поездка в Америку.1988.BDRip-AVC.mkv
General
Unique ID : 228540303326670348728428399844523616182 (0xABEF42E8FCF9ED73B17CB256BE89A7B6)
Complete name : I:\PIRAT.CA\РАЗДАЧИ\Поездка в Америку.1988.BDRip-AVC.mkv
Format : Matroska
Format version : Version 2
File size : 4.11 GiB
Duration : 1h 56mn
Overall bit rate : 5 034 Kbps
Encoded date : UTC 2014-06-22 19:38:06
Writing application : mkvmerge v5.8.0 ('No Sleep / Pillow') built on Sep 2 2012 15:37:04
Writing library : libebml v1.2.3 + libmatroska v1.3.0
Video #1
ID : 1
Format : AVC
Format/Info : Advanced Video Codec
Format profile : [email protected]
Format settings, CABAC : Yes
Format settings, ReFrames : 14 frames
Muxing mode : Header stripping
Codec ID : V_MPEG4/ISO/AVC
Duration : 1h 56mn
Bit rate : 3 500 Kbps
Width : 1 024 pixels
Height : 576 pixels
Display aspect ratio : 16:9
Frame rate : 23.976 fps
Color space : YUV
Chroma subsampling : 4:2:0
Bit depth : 8 bits
Scan type : Progressive
Bits/(Pixel*Frame) : 0.247
Stream size : 2.77 GiB (68%)
Writing library : x264 core 125 r2208 d9d2288
Encoding settings : cabac=1 / ref=14 / deblock=1:-1:-1 / analyse=0x3:0x133 / me=umh / subme=11 / psy=1 / psy_rd=1.00:0.15 / mixed_ref=1 / me_range=32 / chroma_me=1 / trellis=2 / 8x8dct=1 / cqm=0 / deadzone=21,11 / fast_pskip=1 / chroma_qp_offset=-3 / threads=12 / lookahead_threads=2 / sliced_threads=0 / nr=0 / decimate=1 / interlaced=0 / bluray_compat=0 / constrained_intra=0 / bframes=8 / b_pyramid=2 / b_adapt=2 / b_bias=0 / direct=3 / weightb=1 / open_gop=0 / weightp=2 / keyint=250 / keyint_min=23 / scenecut=40 / intra_refresh=0 / rc_lookahead=60 / rc=2pass / mbtree=1 / bitrate=3500 / ratetol=1.0 / qcomp=0.60 / qpmin=0 / qpmax=69 / qpstep=4 / cplxblur=20.0 / qblur=0.5 / ip_ratio=1.40 / aq=1:1.00
Audio #2
ID : 2
Format : AC-3
Format/Info : Audio Coding 3
Mode extension : CM (complete main)
Muxing mode : Header stripping
Codec ID : A_AC3
Duration : 1h 56mn
Bit rate mode : Constant
Bit rate : 384 Kbps
Channel(s) : 6 channels
Channel positions : Front: L C R, Side: L R, LFE
Sampling rate : 48.0 KHz
Bit depth : 16 bits
Compression mode : Lossy
Stream size : 321 MiB (8%)
Title : Михалёв
Language : Russian
Audio #3
ID : 3
Format : AC-3
Format/Info : Audio Coding 3
Mode extension : CM (complete main)
Muxing mode : Header stripping
Codec ID : A_AC3
Duration : 1h 56mn
Bit rate mode : Constant
Bit rate : 384 Kbps
Channel(s) : 6 channels
Channel positions : Front: L C R, Side: L R, LFE
Sampling rate : 48.0 KHz
Bit depth : 16 bits
Compression mode : Lossy
Stream size : 321 MiB (8%)
Title : Горчаков
Language : Russian
Audio #4
ID : 4
Format : AC-3
Format/Info : Audio Coding 3
Mode extension : CM (complete main)
Muxing mode : Header stripping
Codec ID : A_AC3
Duration : 1h 56mn
Bit rate mode : Constant
Bit rate : 192 Kbps
Channel(s) : 2 channels
Channel positions : Front: L R
Sampling rate : 48.0 KHz
Bit depth : 16 bits
Compression mode : Lossy
Stream size : 160 MiB (4%)
Title : Латышев
Language : Russian
Audio #5
ID : 5
Format : AC-3
Format/Info : Audio Coding 3
Mode extension : CM (complete main)
Muxing mode : Header stripping
Codec ID : A_AC3
Duration : 1h 56mn
Bit rate mode : Constant
Bit rate : 192 Kbps
Channel(s) : 2 channels
Channel positions : Front: L R
Sampling rate : 48.0 KHz
Bit depth : 16 bits
Compression mode : Lossy
Stream size : 160 MiB (4%)
Title : Неизвестный
Language : Russian
Audio #6
ID : 6
Format : AC-3
Format/Info : Audio Coding 3
Mode extension : CM (complete main)
Muxing mode : Header stripping
Codec ID : A_AC3
Duration : 1h 56mn
Bit rate mode : Constant
Bit rate : 384 Kbps
Channel(s) : 6 channels
Channel positions : Front: L C R, Side: L R, LFE
Sampling rate : 48.0 KHz
Bit depth : 16 bits
Compression mode : Lossy
Stream size : 321 MiB (8%)
Title : eng
Language : English

Скриншоты

Яндекс.Метрика
Рейтинг@Mail.ru