[ Сегодня на трекере фрилич! Идет свободное скачивание без начисления Download ]

(Шансон) [CD] Аркадий Северный - Высоцкому - 2014, FLAC (image+.cue), lossless

 

Создавать темы 25-Авг-2014 20:53

--Аркадий Северный -Высоцкому-- Жанр: Шансон
Носитель: CD
Страна-производитель диска: Россия
Год издания: 2014
Издатель (лейбл): Студия "Ночное такси" & Тонгкат
Аудиокодек: FLAC (*.flac)
Тип рипа: image+.cue
Битрейт аудио: lossless
Продолжительность: 00:43:37
Наличие сканов в содержимом раздачи: да
Треклист:

01. Интро (1:17)
02. Вступление (0:47)
03. Волки-люди (3:48)
04. Разбойничья песня (5:25)
05. Билет до Монте-Карло (2:42)
06. Про Сережку Фомина (3:16)
07. Речечка (5:01)
08. Таганка (4:12)
09. Гром прогремел (3:10)
10. Красное, зеленое (3:21)
11. Бодайбо (3:21)
12. За меня невеста отрыдает честно (7:13)

Отчёт EAC

Exact Audio Copy V1.0 beta 3 from 29. August 2011
Отчёт EAC об извлечении, выполненном 7. июля 2014, 19:38
Аркадий Северный / Высоцкому
Дисковод: ASUS DRW-22B3S Adapter: 0 ID: 1
Режим чтения : Достоверность
Использование точного потока : Да
Отключение кэша аудио : Да
Использование указателей C2 : Нет
Коррекция смещения при чтении : 6
Способность читать области Lead-in и Lead-out : Нет
Заполнение пропущенных сэмплов тишиной : Да
Удаление блоков с тишиной в начале и конце : Нет
При вычислениях CRC использовались нулевые сэмплы : Да
Интерфейс : Встроенный Win32-интерфейс для Win NT/2000
Выходной формат : Внутренние WAV-операции
Формат сэмплов : 44.100 Гц; 16 бит; стерео
TOC извлечённого CD
Трек | Старт | Длительность | Начальный сектор | Конечный сектор
---------------------------------------------------------------------
1 | 0:00.00 | 1:17.33 | 0 | 5807
2 | 1:17.33 | 0:47.63 | 5808 | 9395
3 | 2:05.21 | 3:48.13 | 9396 | 26508
4 | 5:53.34 | 5:25.08 | 26509 | 50891
5 | 11:18.42 | 2:42.20 | 50892 | 63061
6 | 14:00.62 | 3:16.12 | 63062 | 77773
7 | 17:16.74 | 5:01.20 | 77774 | 100368
8 | 22:18.19 | 4:12.59 | 100369 | 119327
9 | 26:31.03 | 3:10.30 | 119328 | 133607
10 | 29:41.33 | 3:21.42 | 133608 | 148724
11 | 33:03.00 | 3:21.09 | 148725 | 163808
12 | 36:24.09 | 7:13.59 | 163809 | 196342
Характеристики диапазона извлечения и сообщения об ошибках
Выбранный диапазон
Имя файла C:\2014 - Аркадий Северный - Высоцкому\Аркадий Северный - Высоцкому.wav
Пиковый уровень 99.6 %
Скорость извлечения 7.2 X
Качество диапазона 100.0 %
CRC теста 7CFC6ACC
CRC копии 7CFC6ACC
Копирование... OK
Ошибок не произошло
AccurateRip: сводка
Трек 1 отсутствует в базе данных
Трек 2 отсутствует в базе данных
Трек 3 отсутствует в базе данных
Трек 4 отсутствует в базе данных
Трек 5 отсутствует в базе данных
Трек 6 отсутствует в базе данных
Трек 7 отсутствует в базе данных
Трек 8 отсутствует в базе данных
Трек 9 отсутствует в базе данных
Трек 10 отсутствует в базе данных
Трек 11 отсутствует в базе данных
Трек 12 отсутствует в базе данных
Ни одного трека нет в базе AccurateRip
Конец отчёта
==== Контрольная сумма отчёта A3B207764CC9C46380141A92EE50AF5567BC613A04B95CB86387685482CEE7D4 ====
Яндекс.Метрика
Рейтинг@Mail.ru