Как быть мужиком / How to Be a Man (2013) WEB-DLRip [H.264]

 

Создавать темы 25-Авг-2014 16:19

-Как быть мужиком / How to Be a Man (2013) WEB-DLRip- Год выпуска: 2013
Производство: США / Fox Digital Studios, Last Pictures, Rooster New York
Жанр: Комедия
Описание фильма:
Марк думает, что умирает, и решает записать серию обучающих видео для своего нерождённого сына, призванных воспитать в нём настоящего мужика. Старая знакомая натыкается на его пост на фейсбуке и предлагает своему сыну-выпускнику киношколы помочь Марку со съёмками. Они, разумеется, попадают в множество комических ситуаций и оба обязательно многому научатся незадолго до титров. Как и все мы.
Режиссер: Чадд Харбольд / Chadd Harbold
Продюсер: Терри Леонард, Дэвид Уорфен Брукс, Брайан Гейнор
Актеры: Гэвин МакИннесс, Лиам Эйкен, Меган Нуринджер, Мариса Реданти, Хелен Роджерс, Жасмин Осборн, Дарио Бароссо, Ллойд ДеЛеон, Саманта Масел, Майк Келлер
Перевод: Многоголосый закадровый, любительский
Субтитры: Отсутствуют

Дата мировой премьеры: 10 августа 2013
Продолжительность: 01:25:37
Качество видео: WEB-DLRip (ExKinoRay)
Видео: MPEG-4 AVC/H.264, 1024x576 (16:9), ~2555 kbps, 23.976 fps
Аудио »1: AC3 2.0, 192 kbps, 48 KHz, 16-bit (Русский) / MVO
Аудио »2: AC3 5.1, 448 kbps, 48 KHz, 16-bit (Английский) / ORG
*Внимание! Присутствует ненормативная лексика*

MediaInfo:

x264 [info]: frame I:969 Avg QP:14.97 size: 96382
x264 [info]: frame P:26109 Avg QP:18.39 size: 32452
x264 [info]: frame B:96091 Avg QP:21.29 size: 7283
Формат                                   : Matroska
Версия формата                           : Version 2
Размер файла                             : 1,91 Гбайт
Продолжительность                        : 1 ч. 25 м.
Общий поток                              : 3197 Кбит/сек
Дата кодирования                         : UTC 2014-08-22 21:37:19
Программа кодирования                    : mkvmerge v5.6.0 ('Kenya Kane') built on May 27 2012 16:44:04
Библиотека кодирования                   : libebml v1.2.3 + libmatroska v1.3.0
Видео
Идентификатор                            : 1
Формат                                   : AVC
Формат/Информация                        : Advanced Video Codec
Профиль формата                          : [url=mailto:[email protected]][email protected][/url]
Параметр CABAC формата                   : Да
Параметр ReFrames формата                : 9 кадров
Идентификатор кодека                     : V_MPEG4/ISO/AVC
Продолжительность                        : 1 ч. 25 м.
Битрейт                                  : 2555 Кбит/сек
Ширина                                   : 1024 пикселя
Высота                                   : 576 пикселей
Соотношение сторон                       : 16:9
Режим частоты кадров                     : Постоянный
Частота кадров                           : 23,976 кадра/сек
Цветовое пространство                    : YUV
Субдискретизация насыщенности            : 4:2:0
Битовая глубина                          : 8 бит
Тип развёртки                            : Прогрессивная
Бит/(Пиксели*Кадры)                      : 0.181
Размер потока                            : 1,49 Гбайт (78%)
Библиотека кодирования                   : x264 core 125 r2200 999b753
Настройки программы                      : cabac=1 / ref=9 / deblock=1:-3:-3 / analyse=0x3:0x133 / me=umh / subme=11 / psy=1 / psy_rd=1.00:0.10 / mixed_ref=1 / me_range=32 / chroma_me=1 / trellis=2 / 8x8dct=1 / cqm=0 / deadzone=21,11 / fast_pskip=0 / chroma_qp_offset=-3 / threads=12 / lookahead_threads=2 / sliced_threads=0 / nr=0 / decimate=0 / interlaced=0 / bluray_compat=0 / constrained_intra=0 / bframes=9 / b_pyramid=2 / b_adapt=2 / b_bias=0 / direct=3 / weightb=1 / open_gop=0 / weightp=2 / keyint=240 / keyint_min=23 / scenecut=40 / intra_refresh=0 / rc_lookahead=40 / rc=2pass / mbtree=1 / bitrate=2555 / ratetol=1.0 / qcomp=0.60 / qpmin=0 / qpmax=69 / qpstep=4 / cplxblur=20.0 / qblur=0.5 / ip_ratio=1.40 / aq=1:1.00
Default                                  : Да
Forced                                   : Нет
Аудио #1
Идентификатор                            : 2
Формат                                   : AC-3
Формат/Информация                        : Audio Coding 3
Расширение режима                        : CM (complete main)
Параметр Endianness формата              : Big
Идентификатор кодека                     : A_AC3
Продолжительность                        : 1 ч. 25 м.
Вид битрейта                             : Постоянный
Битрейт                                  : 192 Кбит/сек
Каналы                                   : 2 канала
Расположение каналов                     : Front: L R
Частота                                  : 48,0 КГц
Битовая глубина                          : 16 бит
Метод сжатия                             : С потерями
Размер потока                            : 118 Мбайт (6%)
Заголовок                                : Любительский многоголосый
Язык                                     : Russian
Default                                  : Да
Forced                                   : Нет
Аудио #2
Идентификатор                            : 3
Формат                                   : AC-3
Формат/Информация                        : Audio Coding 3
Расширение режима                        : CM (complete main)
Параметр Endianness формата              : Big
Идентификатор кодека                     : A_AC3
Продолжительность                        : 1 ч. 25 м.
Вид битрейта                             : Постоянный
Битрейт                                  : 448 Кбит/сек
Каналы                                   : 6 каналов
Расположение каналов                     : Front: L C R, Side: L R, LFE
Частота                                  : 48,0 КГц
Битовая глубина                          : 16 бит
Метод сжатия                             : С потерями
Размер потока                            : 274 Мбайт (14%)
Язык                                     : English
Default                                  : Нет
Forced                                   : Нет
Скриншоты:
--Время раздачи: c 20:00 до 23:00
Яндекс.Метрика
Рейтинг@Mail.ru