[ Сегодня на трекере фрилич! Идет свободное скачивание без начисления Download ]

Повар на колесах / Chef (2014) WEB-DLRip

 

Создавать темы 25-Авг-2014 16:15

-Повар на колесах / Chef (2014) WEB-DLRip- Год выпуска: 2014
Производство: США, Aldamisa Entertainment
Жанр: Комедия, Драма, Семейный
Режиссер: Джон Фавро
Продюсер: Сергей Беспалов, Джон Фавро, Карен Джонсон, ...
Актеры: Джон Фавро, Джон Легуизамо, Бобби Каннавале, Эмджей Энтони, Скарлетт Йоханссон, Дастин Хоффма,н София Вергара, Оливер Плат, Эми Седарис, Роберт Дауни мл.
Описание фильма: Сюжет фильма разворачивается вокруг шеф-повара Карла Каспера, потерявшего работу в известном ресторане Лос-Анджелеса. Карл решает организовать сеть закусочных на колесах, чтобы отыскать потерянное кулинарное вдохновение и попутно наладить отношения с семьей.
Перевод: Дублированный [НТВ+]

Дата мировой премьеры: 28 апреля 2014
Дата российской премьеры: 5 июня 2014, «Top Film Distribution»
Продолжительность: 01:49:38
Качество видео: WEB-DLRip
Видеокодек: Xvid
Битрейт видео: ~1509 kbps
Размер кадра: 720x304
Аудиокодек: AC3 5.1
Битрейт аудио: 384 kbps
Сэмпл: Скачать

MediaInfo

Общее
Полное имя : Chef.D.2014.WEB-DLRip.avi
Формат : AVI
Формат/Информация : Audio Video Interleave
Размер файла : 1,46 Гбайт
Продолжительность : 1 ч. 49 м.
Общий поток : 1903 Кбит/сек
Программа кодирования : VirtualDubMod 1.5.10.2 (build 2540/release)
Библиотека кодирования : VirtualDubMod build 2540/release
Видео
Идентификатор : 0
Формат : MPEG-4 Visual
Профиль формата : Advanced [email protected]
Параметр BVOP формата : Да
Параметр QPel формата : Нет
Параметр GMC формата : Без точки перехода
Параметр матрицы формата : Выборочная
Идентификатор кодека : XVID
Идентификатор кодека/Подсказка : XviD
Продолжительность : 1 ч. 49 м.
Битрейт : 1509 Кбит/сек
Ширина : 720 пикселей
Высота : 304 пикселя
Соотношение сторон : 2,35:1
Частота кадров : 25,000 кадров/сек
Цветовое пространство : YUV
Субдискретизация насыщенности : 4:2:0
Битовая глубина : 8 бит
Тип развёртки : Прогрессивная
Метод сжатия : С потерями
Бит/(Пиксели*Кадры) : 0.276
Размер потока : 1,16 Гбайт (79%)
Библиотека кодирования : XviD 1.2.1 (UTC 2008-12-04)
Аудио
Идентификатор : 1
Формат : AC-3
Формат/Информация : Audio Coding 3
Расширение режима : CM (complete main)
Параметр Endianness формата : Big
Идентификатор кодека : 2000
Продолжительность : 1 ч. 49 м.
Вид битрейта : Постоянный
Битрейт : 384 Кбит/сек
Каналы : 6 каналов
Расположение каналов : Front: L C R, Side: L R, LFE
Частота : 48,0 КГц
Битовая глубина : 16 бит
Метод сжатия : С потерями
Размер потока : 301 Мбайт (20%)
Выравнивание : Разделение по промежуткам
Продолжительность промежутка : 40 мс. (1,00 видеокадр)
Время предзагрузки промежутка : 500 мс.
Скриншоты:
-Время раздачи: с 09:00 до 23:30
Яндекс.Метрика
Рейтинг@Mail.ru