Вместе / Tillsammans (2000) DVDRip

 

Создавать темы 25-Авг-2014 16:11

-Вместе / Tillsammans (2000) DVDRip- Год выпуска: 2000
Производство: Швеция, Дания, Италия
Жанр: Драма, Мелодрама, Комедия
Описание фильма:
В далекие и свободные семидесятые, когда на улице бушевала сексуальная революция, жила-была самая «обычная» шведская семья. Жили вместе, дружно, под крышей маленького домика, как и положено настоящим хиппи, разделяя все горести и радости. Семья, надо отметить, была пестрая: горячая сторонница свободной любви Лена и ее сожитель Йоран; застенчивый гомосексуалист Классе и недостижимый объект его мечтаний Лассе; а также Анна, которая еще недавно была замужем за Лассе, но из-за политических соображений решившая стать лесбиянкой...

Режиссер: Лукас Мудиссон
Актеры: Лиза Линдгрен, Микаэл Нюквист, Эмма Самуэльсон, Сэм Кессел, Густаф Хаммарстен, Аня Лундквист, Джессика Лидберг, Ола Рапас, Аксель Зубер, Шанти Рони
Продолжительность: 01:42:56
Качество видео: DVDRip
Перевод: Двуголосый закадровый, профессиональный
Дата мировой премьеры: 25 августа 2000
Дата российской премьеры: 3 августа 2001, «Космопол ФД»
Видеокодек: DivX 5
Битрейт видео: ~1440 kb/s
Размер кадра: 704x368
Аудио 1: АС3 2.0, 224 kb/s, Русский
Аудио 2: АС3 2.0, 224 kb/s, Шведский
Сэмпл: Ссылка

Рейтинг R:

Рейтинг R - Детям до 17 лет обязательно присутствие родителей.
Рейтинг R получают фильмы, в содержании которых обязательно содержится материал, предназначенный только для взрослой аудитории. Родителям рекомендуется хорошо подумать, прежде чем посмотреть такой фильм вместе со своими детьми.
Фильм, получивший рейтинг R, может содержать сексуальные сцены, эпизоды с употреблением наркотиков, нецензурную брань, фрагменты с насилием и т.д.

MediaInfo:

Общее
Полное имя : C:Торренты\Вместе.2000.DVDRip.avi
Формат : AVI
Формат/Информация : Audio Video Interleave
Размер файла : 1,37 Гбайт
Продолжительность : 1 ч. 42 м.
Общий поток : 1902 Кбит/сек
Программа кодирования : VirtualDubMod 1.5.10.2 (build 2540/release)
Библиотека кодирования : VirtualDubMod build 2540/release
Видео
Идентификатор : 0
Формат : MPEG-4 Visual
Параметр BVOP формата : 1
Параметр QPel формата : Нет
Параметр GMC формата : Без точки перехода
Параметр матрицы формата : Default (H.263)
Режим смешивания : Сжатый битовый поток
Идентификатор кодека : DX50
Идентификатор кодека/Подсказка : DivX 5
Продолжительность : 1 ч. 42 м.
Битрейт : 1440 Кбит/сек
Ширина : 704 пикселя
Высота : 368 пикселей
Соотношение сторон : 1,913
Частота кадров : 25,000 кадров/сек
Цветовое пространство : YUV
Субдискретизация насыщенности : 4:2:0
Битовая глубина : 8 бит
Тип развёртки : Прогрессивная
Метод сжатия : С потерями
Бит/(Пиксели*Кадры) : 0.222
Размер потока : 1,04 Гбайт (76%)
Библиотека кодирования : DivX 6.8.3-6.8.4 (UTC 2008-06-07)
Аудио #1
Идентификатор : 1
Формат : AC-3
Формат/Информация : Audio Coding 3
Расширение режима : CM (complete main)
Параметр Endianness формата : Big
Идентификатор кодека : 2000
Продолжительность : 1 ч. 42 м.
Вид битрейта : Постоянный
Битрейт : 224 Кбит/сек
Каналы : 2 канала
Расположение каналов : Front: L R
Частота : 48,0 КГц
Битовая глубина : 16 бит
Метод сжатия : С потерями
Размер потока : 165 Мбайт (12%)
Выравнивание : Разделение по промежуткам
Продолжительность промежутка : 40 мс. (1,00 видеокадр)
Время предзагрузки промежутка : 500 мс.
Аудио #2
Идентификатор : 2
Формат : AC-3
Формат/Информация : Audio Coding 3
Расширение режима : CM (complete main)
Параметр Endianness формата : Big
Идентификатор кодека : 2000
Продолжительность : 1 ч. 42 м.
Вид битрейта : Постоянный
Битрейт : 224 Кбит/сек
Каналы : 2 канала
Расположение каналов : Front: L R
Частота : 48,0 КГц
Битовая глубина : 16 бит
Метод сжатия : С потерями
Размер потока : 165 Мбайт (12%)
Выравнивание : Разделение по промежуткам
Продолжительность промежутка : 40 мс. (1,00 видеокадр)
Время предзагрузки промежутка : 500 мс.
Скриншоты:
-Время раздачи: с 10.00 до 22.00
Незабываем благодарить релизёров. Приятного просмотра.
Яндекс.Метрика
Рейтинг@Mail.ru