[ Сегодня на трекере фрилич! Идет свободное скачивание без начисления Download ]

Пристальный взгляд / The Unwinking Gaze (Джошуа Дагдэйл / Joshua Dugdale) [2008 г., документальный, DVDRip] VO + Sub (Eng)

 

Создавать темы 25-Авг-2014 05:14

Пристальный взгляд / The Unwinking Gaze-Внутренняя история борьбы Далай Ламы за Тибет / The Inside Story of the Dalai Lama's Struggle for Tibet- Год выпуска: 2008 г.
Производство: Великобритания , World In Vision Films
Жанр: документальный
Продолжительность: 01:09:31
Перевод: Профессиональный (одноголосый, закадровый)
Режиссёр: Джошуа Дагдэйл / Joshua Dugdale-В ролях:
Его Святейшество Далай Лама 14й
Лоди Гияри - специальный посланник Далай Ламы
Пол Мартин - премьер министр Канады 2003-2006гг.-Описание: 14 марта 2008 года тибетцы вышли на улицы Лхасы. Беспрецедентное восстание против китайских властей. Выступления приняли насильственный характер и протесты распространились словно лесной пожар по всей территории Тибета. Олимпийский факел стал предметом нападения по всему миру. И, неожиданно, предстоящая в Китае вечеринка глобального масштаба - Олимпиада в Пекине - оказалась под угрозой. Многие китайцы винили живущего в изгнании тибетского лидера Далай Ламу и его друзей на Западе в организации массовых беспорядков. Но ни одного доказательства не было обнародовано.
И хотя Тибет сегодня самый быстроразвивающийся регион Китая, многие тибетцы полагают, что мысли и чувства их народа не принимаются в расчёт. И некоторые начинают преисполняться агрессией. В самом Тибете можно угодить в тюрьму за хранение фотографии Далай Ламы. Китай считает его главным препятствием на пути стабильности и суверенности своего государства. Он же утверждает, что отказался от борьбы за независимость и многие считают его неотъемлемым звеном в решении тибетской проблемы.
Далай Лама: "Я твёрдо стою на позиции единого Китая и сохраняю полную приверженность политике Срединного Пути. Так что не волнуйтесь."
Проблема в том, что китайцы попросту ему не верят. Они объявляют Далай Ламу и его советников сепаратистами, которым нельзя доверять.
На протяжении трёх лет съёмочной группе было разрешено следовать за Далай Ламой во всех его поездках. Из отснятого материала были отобраны наиболее яркие сцены, призванные вскрыть суть отношений Китай -Тибет.
-*7.4Качество видео: DVDRip
Контейнер: AVI
Видео кодек: XviD
Аудио кодек: MP3
Видео: 608x352, 1292 kbps, 25 fps, 0.241 bit/pixel
Аудио: 112 kbps, 2 ch, 48.0 kHz
Cубтитры: английские (неотключаемые)

Media Info

Общее
Полное имя : Пристальный взгляд_ The Unwinking Gaze.2008.[DVDRip].avi
Формат : AVI
Формат/Информация : Audio Video Interleave
Размер файла : 704 Мбайт
Продолжительность : 1 ч. 9 м.
Общий поток : 1416 Кбит/сек
Программа кодирования : Lavf52.0.0
Видео
Идентификатор : 0
Формат : MPEG-4 Visual
Профиль формата : Advanced [email protected]
Параметр BVOP формата : 1
Параметр QPel формата : Нет
Параметр GMC формата : Без точки перехода
Параметр матрицы формата : Выборочная
Идентификатор кодека : XVID
Идентификатор кодека/Подсказка : XviD
Продолжительность : 1 ч. 9 м.
Битрейт : 1292 Кбит/сек
Ширина : 608 пикселей
Высота : 352 пикселя
Соотношение сторон : 1,727
Частота кадров : 25,000 кадров/сек
Цветовое пространство : YUV
Субдискретизация насыщенности : 4:2:0
Битовая глубина : 8 бит
Тип развёртки : Прогрессивная
Метод сжатия : С потерями
Бит/(Пиксели*Кадры) : 0.241
Размер потока : 642 Мбайт (91%)
Библиотека кодирования : XviD 1.2.1 (UTC 2008-12-04)
Аудио
Идентификатор : 1
Формат : MPEG Audio
Версия формата : Version 1
Профиль формата : Layer 3
Режим : Joint stereo
Расширение режима : MS Stereo
Идентификатор кодека : 55
Идентификатор кодека/Подсказка : MP3
Продолжительность : 1 ч. 9 м.
Вид битрейта : Постоянный
Битрейт : 112 Кбит/сек
Каналы : 2 канала
Частота : 48,0 КГц
Метод сжатия : С потерями
Размер потока : 55,7 Мбайт (8%)
Выравнивание : Соединение по промежуткам
Продолжительность промежутка : 24 мс. (0,60 видеокадр)

Ещё скриншоты

Яндекс.Метрика
Рейтинг@Mail.ru