[ Сегодня на трекере фрилич! Идет свободное скачивание без начисления Download ]

Станица (2013) DVDRip (серии 1-12 из 12)

 

Создавать темы 24-Авг-2014 22:11

-Станица (2013) DVDRip (серии 1-12 из 12)- Русское название: Станица
Производство: компания "Профит", Россия
Год выпуска: 2013
Жанр: Детектив, Драма, Криминал
Режиссер: Владимир Шевельково
Актеры: Ирина Ефремова (II), Владимир Шевельков, Мария Баева, Дмитрий Оленцов, Юрий Коноплянников, Нина Усатова, Руслан Ягудин, Сергей Никоненко, Евгений Сидихин, Мария Шукшина, Максим Дрозд, Александра Лупашко, Андрей Стоянов, Павел Трубинер
Описание фильма:
2010 год. Кубанская станица Лощинская, оазис процветания среди кризисной разрухи: плотно засеяны поля, знатно ухожены фермы, население трудоустроено и сыто. Что это – колхозный капитализм или когда-то обещанный коммунизм? Ни то и ни другое. Это – блистательный семейный бизнес лихой казачки Надежды Волковой, крестной мамы здешних мест. И, как всякий успешный бизнес, поднятый с нуля в 90-е, он замешан на крови...В один прекрасный день в станицу Лощинская приезжает Марина Горобец, в недавнем прошлом – замужняя женщина, директор молочного хозяйства в соседнем районе, а нынче – безработная и разведенная красавица в расцвете лет. Приезжает она, чтобы навестить дочь Светлану, которая учится в местном профучилище; тут-то и выясняется, что девочки в станице нет. Директор училища, местные милиционеры, одноклассницы Светы на прямые вопросы не отвечают, ведут себя агрессивно, словом, явно что-то скрывают. Не добившись помощи от официальных структур, Марина решает искать дочь самостоятельно. Она еще не знает, что на самом деле станицей руководит структура неофициальная - клан бизнесменов Волковых. Основано на реальных событиях. Убийство 12 человек в доме кущевского фермера Сервера Аметова произошло в ноябре 2010 года. По данным следствия, преступление совершили члены банды Сергея Цапка. Обвиняемые по делу уже предстали перед судом. В настоящее время процесс над бандой Цапка проходит в Краснодарском краевом суде.
Дата российской премьеры: 02.09.2013
Продолжительность: 12 x ~ 00:52:00
Качество видео: DVDRip
Видеокодек: Xvid
Битрейт видео: ~1800 Kbps
Размер кадра: 720x400
Аудиокодек: AC3
Битрейт аудио: 2 ch, 192 Kbps

MediaInfo:

Общее
Полное имя : E:\DOWNLOADS\Станица (2013) DVDRip\Станица - 01 серия.avi
Формат : AVI
Формат/Информация : Audio Video Interleave
Размер файла : 751 Мбайт
Продолжительность : 52 м.
Общий поток : 2002 Кбит/сек
Программа кодирования : VirtualDubMod 1.5.10.3 | [url=http://www.virtualdub-fr.org]www.virtualdub-fr.org[/url] || (build 2550/release)
Библиотека кодирования : VirtualDubMod build 2550/release
Видео
Идентификатор : 0
Формат : MPEG-4 Visual
Профиль формата : Advanced [email protected]
Параметр BVOP формата : 1
Параметр QPel формата : Нет
Параметр GMC формата : Без точки перехода
Параметр матрицы формата : Выборочная
Идентификатор кодека : XVID
Идентификатор кодека/Подсказка : XviD
Продолжительность : 52 м.
Битрейт : 1801 Кбит/сек
Ширина : 720 пикселей
Высота : 400 пикселей
Соотношение сторон : 16:9
Частота кадров : 25,000 кадров/сек
Цветовое пространство : YUV
Субдискретизация насыщенности : 4:2:0
Битовая глубина : 8 бит
Тип развёртки : Прогрессивная
Метод сжатия : С потерями
Бит/(Пиксели*Кадры) : 0.250
Размер потока : 675 Мбайт (90%)
Библиотека кодирования : XviD 1.2.1 (UTC 2008-12-04)
Аудио
Идентификатор : 1
Формат : AC-3
Формат/Информация : Audio Coding 3
Расширение режима : CM (complete main)
Параметр Endianness формата : Big
Идентификатор кодека : 2000
Продолжительность : 52 м.
Вид битрейта : Постоянный
Битрейт : 192 Кбит/сек
Каналы : 2 канала
Расположение каналов : Front: L R
Частота : 48,0 КГц
Битовая глубина : 16 бит
Метод сжатия : С потерями
Размер потока : 72,0 Мбайт (10%)
Выравнивание : Разделение по промежуткам
Продолжительность промежутка : 40 мс. (1,00 видеокадр)
Время предзагрузки промежутка : 500 мс.

Скриншоты:

Яндекс.Метрика
Рейтинг@Mail.ru