Годзилла / Godzilla (Гарет Эдвардс / Gareth Edwards)(2014,Фантастика, боевик, триллер) BDRip [1080p] 3D [Горизонтальная анаморфная стереопара] [Line]

 

Создавать темы 24-Авг-2014 14:52

-Годзилла / Godzilla (2014) BDRip
«The king will rise»
- Год выпуска: 2014
Производство: США, Япония / Legendary Pictures, Warner Bros. Pictures
Жанр: Фантастика, боевик, триллер
Описание фильма:
Человечество случайно разбудило гигантское древнее существо, что повлекло за собой ужасающие последствия…
Режиссер: Гарет Эдвардс / Gareth Edwards
Продюсер: Боб Дюксэй, Джон Дж. Джашни, Мэри Пэрент
Актеры: Аарон Тейлор-Джонсон, Кен Ватанабе, Элизабет Олсен, Салли Хокинс, Брайан Крэнстон, Дэвид Стрэтэйрн, Ричард Т. Джонс, Карсон Болд, Жюльет Бинош, Виктор Расук
Язык: Русский, английский
Перевод: Дублированный, Одноголосый закадровый (любительский)
Вид субтитров: Вшитые отключаемые
Язык субтитров: Английский (full, SDH, SDH-colored)

Дата мировой премьеры: 8 мая 2014
Дата российской премьеры: 15 мая 2014, «Каро-Премьер»
Дата выхода DVD релиза: 18 сентября 2014, «CP Дистрибуция»
Дата выхода Blu-ray релиза: 18 сентября 2014, «CP Дистрибуция»
Рейтинг MPAA: PG-13
Возраст: 12+
Продолжительность: 02:03:07
Качество видео: BDRip [CHD]
Видео: MPEG-4 AVC/H.264, 1920x1080, ~8211 kbps (0.165 bit/pixel), 23.976 fps
Аудио 1: AC3 2.0, 256 kbps, 48 kHz, 16-bit [Русский - дублированный «Line»]
Аудио 2: DTS 5.1, 1536 kbps, 48 kHz, 24-bit [Русский - одноголосый закадровый «R.A.I.M.»]
Аудио 3: AC3 5.1, 640 kbps, 48 kHz, 16-bit [Русский - одноголосый закадровый «R.A.I.M.»]
Аудио 4: DTS 5.1, 1536 kbps, 48 kHz, 24-bit [Английский - оригинал]

Отчёт MediaInfo / x264 log

x264 log

x264 [info]: frame I:1270 Avg QP:13.48 size:156642
x264 [info]: frame P:37676 Avg QP:14.78 size: 90371
x264 [info]: frame B:138168 Avg QP:16.98 size: 30413
Полное имя : D:\Годзилла-Godzilla.(2014).BDRip.[1080p].3D.mkv
Формат : Matroska
Версия формата : Version 3 / Version 2
Размер файла : 10,6 Гбайт
Продолжительность : 2 ч. 3 м.
Общий поток : 12,4 Мбит/сек
Название фильма : Поддубный (2014) 3D
Дата кодирования : UTC 2014-08-24 09:10:46
Программа кодирования : mkvmerge v5.7.0 ('The Whirlwind') built on Aug 7 2012 14:11:40
Библиотека кодирования : libebml v1.2.3 + libmatroska v1.3.0
Attachment : Yes
Видео
Идентификатор : 1
Формат : AVC
Формат/Информация : Advanced Video Codec
Профиль формата : [url=mailto:[email protected]][email protected][/url]
MultiView_Count : 2
MultiView_Layout : Side by Side (left eye first)
Параметр CABAC формата : Да
Параметр ReFrames формата : 4 кадра
Идентификатор кодека : V_MPEG4/ISO/AVC
Продолжительность : 2 ч. 3 м.
Битрейт : 8211 Кбит/сек
Ширина : 1920 пикселей
Высота : 1080 пикселей
Соотношение сторон : 16:9
Режим частоты кадров : Постоянный
Частота кадров : 23,976 кадра/сек
Цветовое пространство : YUV
Субдискретизация насыщенности : 4:2:0
Битовая глубина : 8 бит
Тип развёртки : Прогрессивная
Бит/(Пиксели*Кадры) : 0.165
Размер потока : 7,06 Гбайт (66%)
Заголовок : Годзилла-Godzilla.(2014).BDRip.[1080p].3D
Библиотека кодирования : x264 core 142 r2389 956c8d8
Настройки программы : cabac=1 / ref=4 / deblock=1:-3:-3 / analyse=0x3:0x113 / me=umh / subme=10 / psy=1 / psy_rd=1.00:0.00 / mixed_ref=1 / me_range=32 / chroma_me=1 / trellis=2 / 8x8dct=1 / cqm=0 / deadzone=21,11 / fast_pskip=0 / chroma_qp_offset=-4 / threads=6 / lookahead_threads=1 / sliced_threads=0 / nr=0 / decimate=0 / interlaced=0 / bluray_compat=0 / constrained_intra=0 / bframes=6 / b_pyramid=2 / b_adapt=2 / b_bias=0 / direct=3 / weightb=1 / open_gop=0 / weightp=2 / keyint=250 / keyint_min=23 / scenecut=40 / intra_refresh=0 / rc=crf / mbtree=0 / crf=17.0 / qcomp=0.80 / qpmin=0 / qpmax=69 / qpstep=4 / frame-packing=3 / ip_ratio=1.30 / pb_ratio=1.30 / aq=2:0.90
Язык : English
Default : Да
Forced : Нет
Аудио #1
Идентификатор : 2
Формат : AC-3
Формат/Информация : Audio Coding 3
Расширение режима : CM (complete main)
Параметр Endianness формата : Big
Идентификатор кодека : A_AC3
Продолжительность : 2 ч. 3 м.
Вид битрейта : Постоянный
Битрейт : 256 Кбит/сек
Каналы : 2 канала
Расположение каналов : Front: L R
Частота : 48,0 КГц
Битовая глубина : 16 бит
Метод сжатия : С потерями
Размер потока : 225 Мбайт (2%)
Заголовок : AC3 2.0 / 256 kbps / Dub
Язык : Russian
Default : Да
Forced : Нет
Аудио #2
Идентификатор : 3
Формат : DTS
Формат/Информация : Digital Theater Systems
Идентификатор кодека : A_DTS
Продолжительность : 2 ч. 3 м.
Вид битрейта : Постоянный
Битрейт : 1510 Кбит/сек
Каналы : 6 каналов
Расположение каналов : Front: L C R, Side: L R, LFE
Частота : 48,0 КГц
Битовая глубина : 24 бит
Метод сжатия : С потерями
Размер потока : 1,30 Гбайт (12%)
Заголовок : DTS 5.1 / 1536 kbps / VO (R.A.I.M.)
Язык : Russian
Default : Нет
Forced : Нет
Аудио #3
Идентификатор : 4
Формат : AC-3
Формат/Информация : Audio Coding 3
Расширение режима : CM (complete main)
Параметр Endianness формата : Big
Идентификатор кодека : A_AC3
Продолжительность : 2 ч. 3 м.
Вид битрейта : Постоянный
Битрейт : 640 Кбит/сек
Каналы : 6 каналов
Расположение каналов : Front: L C R, Side: L R, LFE
Частота : 48,0 КГц
Битовая глубина : 16 бит
Метод сжатия : С потерями
Размер потока : 564 Мбайт (5%)
Заголовок : AC3 5.1 / 640 kbps / VO (R.A.I.M.)
Язык : Russian
Default : Нет
Forced : Нет
Аудио #4
Идентификатор : 5
Формат : DTS
Формат/Информация : Digital Theater Systems
Идентификатор кодека : A_DTS
Продолжительность : 2 ч. 3 м.
Вид битрейта : Постоянный
Битрейт : 1510 Кбит/сек
Каналы : 6 каналов
Расположение каналов : Front: L C R, Side: L R, LFE
Частота : 48,0 КГц
Битовая глубина : 24 бит
Метод сжатия : С потерями
Размер потока : 1,30 Гбайт (12%)
Заголовок : DTS 5.1 / 1536 kbps / Original
Язык : English
Default : Нет
Forced : Нет
Текст #1
Идентификатор : 6
Формат : UTF-8
Идентификатор кодека : S_TEXT/UTF8
Идентификатор кодека/Информация : UTF-8 Plain Text
Заголовок : Full
Язык : English
Default : Нет
Forced : Нет
Текст #2
Идентификатор : 7
Формат : UTF-8
Идентификатор кодека : S_TEXT/UTF8
Идентификатор кодека/Информация : UTF-8 Plain Text
Заголовок : SDH
Язык : English
Default : Нет
Forced : Нет
Текст #3
Идентификатор : 8
Формат : UTF-8
Идентификатор кодека : S_TEXT/UTF8
Идентификатор кодека/Информация : UTF-8 Plain Text
Заголовок : SDH (Colored)
Язык : English
Default : Нет
Forced : Нет
Меню
00:00:00.000 : en:00:00:00.000
00:09:22.562 : en:00:09:22.562
00:19:03.225 : en:00:19:03.225
00:30:25.532 : en:00:30:25.532
00:39:10.098 : en:00:39:10.098
00:49:43.439 : en:00:49:43.439
00:59:27.189 : en:00:59:27.189
01:09:50.186 : en:01:09:50.186
01:19:11.246 : en:01:19:11.246
01:29:57.267 : en:01:29:57.267
01:40:14.759 : en:01:40:14.759
01:52:14.728 : en:01:52:14.728
01:56:10.088 : en:01:56:10.088
Скриншоты:

Создавать темы 24-Авг-2014 16:51 (спустя 1 час 59 минут)

Дайте скорости!
Яндекс.Метрика
Рейтинг@Mail.ru