Секретные материалы. Выпуск №39 (2014.08.19) SATRip [RUS/UKR]

 

Создавать темы 24-Авг-2014 14:45

- Секретные материалы. Выпуск №39 (2014.08.19) SATRip [RUS/UKR] - Режиссер / Телекомпания: 1+1
Русское название: Секретные материалы
Год выпуска: 2014
Жанр: Информационная программа, журналистские расследования
Выпущено: Украина, 1+1
Описание:
Журналисты и программы расскажут всю неправду о том, куда пропала Люся Янукович. Об украинских остарбайтерах и пренебрежение к украинской России , а также о пренебрежении к русским в мире. Также зрители узнают о: информационных войнах против Украины ; российских шпионах и провокаторах - диверсионных группах в Украине ; яхтах, вертолетах, автомобилях, домах и квартирах Януковича, Захарченко, Арбузова и Клименко; контрабанде в Харьковской области (как живут контрабандисты в/из России). Тайну прокурора Крыма Натальи Поклонской . О бандитских группировках в Крыму и о многом другом, о чем не прочитаешь в газетах и не увидишь в Интернете.
Продолжительность: 00:13:10
Видеокодек: Xvid
Битрейт видео: ~1386 Кбит/сек
Размер кадра: 720 x 544
Качество видео: SATRip
Аудиокодек: MP3, 2ch.
Битрейт аудио: 192 Кбит/сек

MediaInfo:

Формат : AVI
Формат/Информация : Audio Video Interleave
Размер файла : 150 Мбайт
Продолжительность : 13 м.
Общий поток : 1588 Кбит/сек
Программа кодирования : VirtualDubMod 1.5.10.3 | www.virtualdub-fr.org || (build 2550/release)
Библиотека кодирования : VirtualDubMod build 2550/release
Видео
Идентификатор : 0
Формат : MPEG-4 Visual
Профиль формата : Advanced [email protected]
Параметр BVOP формата : 1
Параметр QPel формата : Нет
Параметр GMC формата : Без точки перехода
Параметр матрицы формата : Default (MPEG)
Идентификатор кодека : XVID
Идентификатор кодека/Подсказка : XviD
Продолжительность : 13 м.
Битрейт : 1386 Кбит/сек
Ширина : 720 пикселей
Высота : 544 пикселя
Соотношение сторон : 4:3
Частота кадров : 25,000 кадров/сек
Цветовое пространство : YUV
Субдискретизация насыщенности : 4:2:0
Битовая глубина : 8 бит
Тип развёртки : Прогрессивная
Метод сжатия : С потерями
Бит/(Пиксели*Кадры) : 0.142
Размер потока : 131 Мбайт (87%)
Библиотека кодирования : XviD 1.2.1 (UTC 2008-12-04)
Аудио
Идентификатор : 1
Формат : MPEG Audio
Версия формата : Version 1
Профиль формата : Layer 3
Режим : Joint stereo
Расширение режима : MS Stereo
Идентификатор кодека : 55
Идентификатор кодека/Подсказка : MP3
Продолжительность : 13 м.
Вид битрейта : Постоянный
Битрейт : 192 Кбит/сек
Каналы : 2 канала
Частота : 48,0 КГц
Метод сжатия : С потерями
Размер потока : 18,1 Мбайт (12%)
Выравнивание : Соединение по промежуткам
Продолжительность промежутка : 40 мс. (1,00 видеокадр)
Время предзагрузки промежутка : 504 мс.
Библиотека кодирования : LAME3.99r
Настройки программы : -m j -V 4 -q 2 -lowpass 18.6 -b 192
Скриншоты:
Яндекс.Метрика
Рейтинг@Mail.ru