[ Сегодня на трекере фрилич! Идет свободное скачивание без начисления Download ]

Они пришли вместе / They Came Together (2014) BDRip [720p] [EN / EN Sub]

 

Создавать темы 24-Авг-2014 09:31

- Они пришли вместе / They Came Together (2014) BDRip [720p] [EN / EN Sub] - Год выпуска: 2014
Производство: США _ Lionsgate
Жанр: Комедия
Описание фильма:
Когда Джоэл и Молли встречаются в первый раз, между ними нет ничего, кроме ненависти: крупная компания Джоэла, мегасеть кондитерских, угрожает закрыть ее маленький симпатичный кондитерский магазинчик. Преодолевая причудливые ситуации, невыносимых членов семьи и таких же бывших любовников, Джоэл и Молли столкнутся с весьма серьезными препятствиями на пути к их истинной любви.
Режиссер: Дэвид Уэйн
Актеры: Коби Смолдерс, Пол Радд, Кристофер Мелони, Джеффри Дин Морган, Адам Скотт, Майкл Шеннон, Эми Полер, Мелани Лински, Норин ДеВулф, Элли Кемпер, Билл Хейдер, Эд Хелмс
Продолжительность: 01:23:20
Качество видео: BDRip [profile-LQ]
Перевод: Отсутствует
Язык: Английский
Язык субтитров: Английский
Вид субтитров: Вшитые, отключаемые
Видеокодек: MPEG-4 AVC/H.264
Битрейт видео: ~4 118 Kbps
Размер кадра: 1280x720
Аудиокодек: DTS, 6 channels
Битрейт аудио: 1 510 Kbps
Сэмпл: Ссылка

MediaInfo

They Came Together.720p.mkv
Format                                   : Matroska
Format version                           : Version 2
File size                                : 3.28 GiB
Duration                                 : 1h 23mn
Overall bit rate                         : 5 628 Kbps
Writing application                      : mkvmerge v6.6.0 ('The Edge Of The In Between') built on Dec 1 2013 17:55:00
Writing library                          : libebml v1.3.0 + libmatroska v1.4.1
Video
ID                                       : 1
Format                                   : AVC
Format/Info                              : Advanced Video Codec
Format profile                           : [url=mailto:[email protected]][email protected][/url]
Format settings, CABAC                   : Yes
Format settings, ReFrames                : 5 frames
Codec ID                                 : V_MPEG4/ISO/AVC
Duration                                 : 1h 23mn
Bit rate                                 : 4 118 Kbps
Width                                    : 1 280 pixels
Height                                   : 720 pixels
Display aspect ratio                     : 16:9
Frame rate                               : 23.976 fps
Color space                              : YUV
Chroma subsampling                       : 4:2:0
Bit depth                                : 8 bits
Scan type                                : Progressive
Bits/(Pixel*Frame)                       : 0.186
Stream size                              : 2.33 GiB (71%)
Writing library                          : x264 core 142 r2453 ea0ca51
Encoding settings                        : cabac=1 / ref=5 / deblock=1:-3:-3 / analyse=0x3:0x113 / me=umh / subme=8 / psy=1 / psy_rd=1.00:0.00 / mixed_ref=1 / me_range=16 / chroma_me=1 / trellis=1 / 8x8dct=1 / cqm=0 / deadzone=21,11 / fast_pskip=1 / chroma_qp_offset=-2 / threads=18 / lookahead_threads=3 / sliced_threads=0 / nr=0 / decimate=1 / interlaced=0 / bluray_compat=0 / constrained_intra=0 / bframes=3 / b_pyramid=2 / b_adapt=2 / b_bias=0 / direct=3 / weightb=1 / open_gop=0 / weightp=2 / keyint=240 / keyint_min=24 / scenecut=40 / intra_refresh=0 / rc_lookahead=50 / rc=2pass / mbtree=1 / bitrate=4118 / ratetol=1.0 / qcomp=0.60 / qpmin=0 / qpmax=69 / qpstep=4 / cplxblur=20.0 / qblur=0.5 / ip_ratio=1.40 / aq=1:1.00
Language                                 : English
Default                                  : Yes
Forced                                   : No
Audio
ID                                       : 2
Format                                   : DTS
Format/Info                              : Digital Theater Systems
Codec ID                                 : A_DTS
Duration                                 : 1h 23mn
Bit rate mode                            : Constant
Bit rate                                 : 1 510 Kbps
Channel(s)                               : 6 channels
Channel positions                        : Front: L C R, Side: L R, LFE
Sampling rate                            : 48.0 KHz
Bit depth                                : 24 bits
Compression mode                         : Lossy
Stream size                              : 900 MiB (27%)
Language                                 : English
Default                                  : Yes
Forced                                   : No
Text #1
ID                                       : 3
Format                                   : UTF-8
Codec ID                                 : S_TEXT/UTF8
Codec ID/Info                            : UTF-8 Plain Text
Language                                 : English
Default                                  : No
Forced                                   : No
Text #2
ID                                       : 4
Format                                   : UTF-8
Codec ID                                 : S_TEXT/UTF8
Codec ID/Info                            : UTF-8 Plain Text
Title                                    : SDH
Language                                 : English
Default                                  : No
Forced                                   : No
Menu
00:00:00.000                             : en:00:00:00.000
00:05:13.855                             : en:00:05:13.855
00:08:04.317                             : en:00:08:04.317
00:12:24.202                             : en:00:12:24.202
00:19:03.684                             : en:00:19:03.684
00:26:34.343                             : en:00:26:34.343
00:32:45.839                             : en:00:32:45.839
00:36:20.261                             : en:00:36:20.261
00:40:45.693                             : en:00:40:45.693
00:45:10.708                             : en:00:45:10.708
00:48:25.444                             : en:00:48:25.444
00:54:24.136                             : en:00:54:24.136
01:00:05.644                             : en:01:00:05.644
01:07:48.773                             : en:01:07:48.773
01:10:30.852                             : en:01:10:30.852
01:14:39.350                             : en:01:14:39.350

Скриншоты:

Яндекс.Метрика
Рейтинг@Mail.ru