[ Сегодня на трекере фрилич! Идет свободное скачивание без начисления Download ]

Дюнкерк / Dunkirk (1958) DVDRip

 

Создавать темы 24-Авг-2014 09:08

-Дюнкерк / Dunkirk (1958) DVDRip- Год выпуска: 1958
Жанр: Военный, Драма
Описание фильма:
Две истории в одной: беззаботный британский капрал, находящийся во Франции, узнаёт, что он оказался ответственным за жизни своих людей после гибели их офицера. И он должен найти способ вернуть их в Англию. Тем временем британские гражданские лица оказываются втянутыми в войну при помощи операции «Динамо», целью которой было вернуть французские и британские войска на побережье Дюнкерка. Есть и те, кто готов прийти на помощь, и те, кто действует не столь охотно.
Доп. информация: DVDRip by alf62
Большое СПАСИБО за работу над фильмом целому коллективу:
- за озвучивание: А. Багичеву;
- инициаторам организации перевода: alinto, jasenka, Simpun, Der eiserne Wolf, Lentyai80, Магда, Cybernn, Drenkens, lafajet;
- за наложение чистого голоса на оригинальную дорогу: Нордер;
- за первоисточник DVD: alinto
[thumb]http://multi-up.com/993187[/thumb]
Режиссер: Лесли Норман
Актеры: Джон Миллз, Роберт Эркарт, Рэй Джексон, Мередит Эдвардс, Энтони Николлс, Бернард Ли, Майкл Шилло, Ричард Аттенборо, Шон Баррет, Виктор Маддерн.
Продолжительность: 02:09:46
Качество видео: DVDRip
Перевод: Одноголосый закадровый
Автор перевода: А. Багичев
Видеокодек: DivX 5
Битрейт видео: 2141 kbps avg
Размер кадра: 704x400
Аудиокодек: AC3
Битрейт аудио: 192.00 kbps avg (2 канала, стерео)

MediaInfo

Дюнкерк\Djunkerk.1958.DivX.DVDRip.alf62.avi
Формат                                   : AVI
Формат/Информация                        : Audio Video Interleave
Профиль формата                          : OpenDML
Размер файла                             : 2,13 Гбайт
Продолжительность                        : 2 ч. 9 м.
Общий поток                              : 2345 Кбит/сек
Программа кодирования                    : VirtualDubMod 1.5.10.3 | [url=http://www.virtualdub-fr.org]www.virtualdub-fr.org[/url] || (build 2550/release)
Библиотека кодирования                   : VirtualDubMod build 2550/release
Видео
Идентификатор                            : 0
Формат                                   : MPEG-4 Visual
Профиль формата                          : Advanced [email protected]
Параметр BVOP формата                    : 2
Параметр QPel формата                    : Нет
Параметр GMC формата                     : Без точки перехода
Параметр матрицы формата                 : Default (MPEG)
Идентификатор кодека                     : DX50
Идентификатор кодека/Подсказка           : DivX 5
Продолжительность                        : 2 ч. 9 м.
Битрейт                                  : 2141 Кбит/сек
Ширина                                   : 704 пикселя
Высота                                   : 400 пикселей
Соотношение сторон                       : 16:9
Частота кадров                           : 25,000 кадров/сек
Цветовое пространство                    : YUV
Субдискретизация насыщенности            : 4:2:0
Битовая глубина                          : 8 бит
Тип развёртки                            : Прогрессивная
Метод сжатия                             : С потерями
Бит/(Пиксели*Кадры)                      : 0.304
Размер потока                            : 1,94 Гбайт (91%)
Библиотека кодирования                   : XviD 73
Аудио
Идентификатор                            : 1
Формат                                   : AC-3
Формат/Информация                        : Audio Coding 3
Расширение режима                        : CM (complete main)
Параметр Endianness формата              : Big
Идентификатор кодека                     : 2000
Продолжительность                        : 2 ч. 9 м.
Вид битрейта                             : Постоянный
Битрейт                                  : 192 Кбит/сек
Каналы                                   : 2 канала
Расположение каналов                     : Front: L R
Частота                                  : 48,0 КГц
Битовая глубина                          : 16 бит
Метод сжатия                             : С потерями
Размер потока                            : 178 Мбайт (8%)
Выравнивание                             : Разделение по промежуткам
Продолжительность промежутка             : 40  мс. (1,00 видеокадр)
Время предзагрузки промежутка            : 500  мс.

Скриншоты:

-
Яндекс.Метрика
Рейтинг@Mail.ru