Колдуотер / Coldwater (2013) BDRip [720p] [EN]

 

Создавать темы 24-Авг-2014 08:18

- Колдуотер / Coldwater (2013) BDRip [720p] [EN]- Год выпуска: 2013
Производство: США _ Flying Pig Films / Skipping Stone Entertainment / Gare Farrand Entertainment
Жанр: Триллер, Драма
Описание фильма:
Подростка отправляют в воспитательную колонию, расположенную в пустыне. Там ему придется бороться за выживание наряду с остальными заключенными.
Режиссер: Винсент Грэшоу
Актеры: П.Дж. Будуске, Джеймс С. Бёрнс, Крис Петровски, Октавиус Дж. Джонсон, Николас Бейтман, Стефани Симбари, Маккензи Сидвелл Графф, Клейтон ЛаДью, Томми Нэш, Скотт МакАртур
Продолжительность: 01:39:38
Качество видео: BDRip
Перевод: Отсутствует
Язык: Английский
Видеокодек: MPEG-4 AVC/H.264
Битрейт видео: ~5 601 Kbps
Размер кадра: 1280x544
Аудиокодек: DTS, 6 channels
Битрейт аудио: 1 510 Kbps
Сэмпл: Ссылка

MediaInfo

Coldwater_720p.mkv
Format                                   : Matroska
Format version                           : Version 4 / Version 2
File size                                : 5.05 GiB
Duration                                 : 1h 39mn
Overall bit rate                         : 7 255 Kbps
Encoded date                             : UTC 2014-08-23 13:26:22
Writing application                      : mkvmerge v6.7.0 ('Back to the Ground') 64bit built on Jan  8 2014 15:10:52
Writing library                          : libebml v1.3.0 + libmatroska v1.4.1
TITLE                                    : COLDWATER
Video
ID                                       : 2
Format                                   : AVC
Format/Info                              : Advanced Video Codec
Format profile                           : [url=mailto:[email protected]][email protected][/url]
Format settings, CABAC                   : Yes
Format settings, ReFrames                : 4 frames
Codec ID                                 : V_MPEG4/ISO/AVC
Duration                                 : 1h 39mn
Bit rate                                 : 5 601 Kbps
Nominal bit rate                         : 5 987 Kbps
Width                                    : 1 280 pixels
Height                                   : 544 pixels
Display aspect ratio                     : 2.35:1
Frame rate mode                          : Variable
Frame rate                               : 25.000 fps
Color space                              : YUV
Chroma subsampling                       : 4:2:0
Bit depth                                : 8 bits
Scan type                                : Progressive
Bits/(Pixel*Frame)                       : 0.322
Stream size                              : 3.90 GiB (77%)
Writing library                          : x264 core 130 r2273 b3065e6
Encoding settings                        : cabac=1 / ref=1 / deblock=1:0:0 / analyse=0x3:0x113 / me=hex / subme=2 / psy=1 / psy_rd=1.00:0.00 / mixed_ref=0 / me_range=16 / chroma_me=1 / trellis=0 / 8x8dct=1 / cqm=0 / deadzone=21,11 / fast_pskip=1 / chroma_qp_offset=0 / threads=6 / lookahead_threads=2 / sliced_threads=0 / nr=0 / decimate=1 / interlaced=0 / bluray_compat=0 / constrained_intra=0 / bframes=3 / b_pyramid=2 / b_adapt=1 / b_bias=0 / direct=1 / weightb=1 / open_gop=0 / weightp=1 / keyint=250 / keyint_min=25 / scenecut=40 / intra_refresh=0 / rc_lookahead=10 / rc=abr / mbtree=1 / bitrate=5987 / ratetol=1.0 / qcomp=0.60 / qpmin=0 / qpmax=69 / qpstep=4 / vbv_maxrate=62500 / vbv_bufsize=78125 / nal_hrd=none / ip_ratio=1.40 / aq=1:1.00
Language                                 : English
Default                                  : Yes
Forced                                   : No
Color primaries                          : BT.709-5, BT.1361, IEC 61966-2-4, SMPTE RP177
Transfer characteristics                 : BT.709-5, BT.1361
Matrix coefficients                      : BT.709-5, BT.1361, IEC 61966-2-4 709, SMPTE RP177
Audio
ID                                       : 1
Format                                   : DTS
Format/Info                              : Digital Theater Systems
Codec ID                                 : A_DTS
Duration                                 : 1h 39mn
Bit rate mode                            : Constant
Bit rate                                 : 1 510 Kbps
Channel(s)                               : 6 channels
Channel positions                        : Front: L C R, Side: L R, LFE
Sampling rate                            : 48.0 KHz
Bit depth                                : 24 bits
Compression mode                         : Lossy
Stream size                              : 1.05 GiB (21%)
Language                                 : English
Default                                  : Yes
Forced                                   : No
Menu
00:00:00.000                             : en:Chapter 1
00:10:02.000                             : en:Chapter 2
00:20:34.000                             : en:Chapter 3
00:23:56.800                             : en:Chapter 4
00:28:52.760                             : en:Chapter 5
00:36:26.360                             : en:Chapter 6
00:43:08.960                             : en:Chapter 7
00:54:51.880                             : en:Chapter 8
01:05:21.480                             : en:Chapter 9
01:14:18.840                             : en:Chapter 10
01:22:57.720                             : en:Chapter 11
01:33:03.600                             : en:Chapter 12

Скриншоты:

Яндекс.Метрика
Рейтинг@Mail.ru