Орудие смерти / A-i-deul... (Ли Гю Ман) [2011, триллер, криминал, DVDRip] от Youtracker | P | лицензия

 

Создавать темы 03-Ноя-2013 08:00

-Страна: Корея Южная / Noori Pictures
Жанр: триллер, криминал
Год выпуска: 2011
Продолжительность: 02:06:17
Перевод: профессиональный (многоголосый, закадровый)
Cубтитры: нет
Оригинальная аудиодорожка: нет
Режиссер: Ли Гю Ман / Kyu-maan Lee
В ролях: Пак Ён У, Рю Сын Рён, Сон Дон Иль, Сон Чжи Ру, Ким Ё Чжин, Пак Пён Ын, Ким Гу Тхэк, Ми-хён Пак, Ли Сан Хи, Ток-чжэ Чжо
Описание: Фильм основан на реальной истории — нераскрытом убийстве, известном в Корее под названием «исчезновение лягушачьих детей». В 1991 году пять учеников начальной школы сказали своим родителям, что собираются наловить лягушек на близлежащей горе. Они никогда не вернулись домой.

Качество: DVDRip / DVD9 R5
Формат: AVI
Видео: 720x384 (1.85:1), 25.000 fps, XVID ~1194 kbps avg, 0.173 bit/pixel
Аудио: Русский 48 kHz, AC3, 6 ch, 448.00 kbps Constant

MediaInfo

Общее
Полное имя : Orudie.smerti.2011.P.DVDRip.1500MB_[Youtracker]_by_avproh.avi
Формат : AVI
Формат/Информация : Audio Video Interleave
Размер файла : 1,46 Гбайт
Продолжительность : 2 ч. 6 м.
Общий поток : 1651 Кбит/сек
Программа кодирования : VirtualDubMod 1.5.10.3 | www.virtualdub-fr.org || (build 2550/release)
Библиотека кодирования : VirtualDubMod build 2550/release
Видео
Идентификатор : 0
Формат : MPEG-4 Visual
Профиль формата : Advanced [email protected]
Параметр BVOP формата : 1
Параметр QPel формата : Нет
Параметр GMC формата : Без точки перехода
Параметр матрицы формата : Выборочная
Идентификатор кодека : XVID
Идентификатор кодека/Подсказка : XviD
Продолжительность : 2 ч. 6 м.
Битрейт : 1194 Кбит/сек
Ширина : 720 пикселей
Высота : 384 пикселя
Соотношение сторон : 1,85:1
Частота кадров : 25,000 кадров/сек
Цветовое пространство : YUV
Субдискретизация насыщенности : 4:2:0
Битовая глубина : 8 бит
Тип развёртки : Прогрессивная
Метод сжатия : С потерями
Бит/(Пиксели*Кадры) : 0.173
Размер потока : 1,05 Гбайт (72%)
Библиотека кодирования : XviD 73
Аудио
Идентификатор : 1
Формат : AC-3
Формат/Информация : Audio Coding 3
Расширение режима : CM (complete main)
Параметр Endianness формата : Big
Идентификатор кодека : 2000
Продолжительность : 2 ч. 6 м.
Вид битрейта : Постоянный
Битрейт : 448 Кбит/сек
Каналы : 6 каналов
Расположение каналов : Front: L C R, Side: L R, LFE
Частота : 48,0 КГц
Битовая глубина : 16 бит
Метод сжатия : С потерями
Размер потока : 405 Мбайт (27%)
Выравнивание : Разделение по промежуткам
Продолжительность промежутка : 40 мс. (1,00 видеокадр)
Время предзагрузки промежутка : 500 мс.

Скриншоты:


_________________
Подпись отключена за нарушение правил форума
Яндекс.Метрика
Рейтинг@Mail.ru