[ Сегодня на трекере фрилич! Идет свободное скачивание без начисления Download ]

О жизни и просветлении. Принципы буддизма с Его Святейшеством Далай Ламой / On Life and Enlightenment. Principles of Buddhism with His Holiness The Dalai Lama / 1-5 из 5 (Кошик Гупта Рэй / Kaushik Gupta Ray) [2006 г., документальный, DVDRip] VO

 

Создавать темы 24-Авг-2014 03:50

О жизни и просветлении / On Life and Enlightenment-Принципы буддизма с Его Святейшеством Далай Ламой / Principles of Buddhism with His Holiness The Dalai Lama- Год выпуска: 2006 г.
Производство: Германия , Templestone Television and Neil Prashad
Жанр: документальный
Продолжительность: 5x ~ 00:30:00
Перевод: Профессиональный (одноголосый, закадровый)
Режиссёр: Кошик Гупта Рэй / Kaushik Gupta Ray-В ролях:
H.H. The Dalai Lama
H.E. 12th Tai Situ Rimpoche - Регент 17го Кармапа
H.H. Drubwang Penor Rimpoche - Глава школы Нийнгмапа
H.H. Sakya Trizin Rinpoche - Глава школы Сакья
H.H. Menri Trizin Rinpoche - Глава школы Бонпо
Anila Tenzin Palmo - монахиня из Великобритании
Ngagspa Karma - тантрический практик
Tulku Anjam - Лама-перерожденец-Описание:
Практики тибетских буддистских монахов, от медитации до диеты, представлены в этом специальном показе от Его Святейшества Далай Ламы и других известных духовных лидеров.
-*6.2
Качество видео: DVDRip
Контейнер: AVI
Видео кодек: XviD
Аудио кодек: MP3
Видео: 512x384, ~ 1144 kbps avg, 25 fps, 0.230 bit/pixel; 2 серия - 544x416
Аудио: 128 kbps, 2 ch, 48.0 kHz
Cубтитры: отсутствуют

Награды

Toronto International Festival - Лучший документальный фильм

Содержание

1 серия. Мудра. Жизнь - это ритуал
2 серия. Мандала. Осознание своей роли во Вселенной
3 серия. Бардо. Космическое пространство или переходное состояние в цикле перерождений
4 серия. Лха. Дух или энергия жизни
5 серия. Мен Лха. Медицина Будды. Секреты успеха тибетской системы врачевания с комментариями Его Святейшества Далай Ламы

Media Info

Общее
Полное имя : О жизни и просветлении. Принципы буддизма с Далай Ламой.2005.[DVDRip]\1 серия.avi
Формат : AVI
Формат/Информация : Audio Video Interleave
Размер файла : 272 Мбайт
Продолжительность : 30 м.
Режим общего битрейта : Переменный
Общий поток : 1249 Кбит/сек
Программа кодирования : VirtualDubMod 1.5.4.1 (build 2178/release)
Библиотека кодирования : VirtualDubMod build 2178/release
Видео
Идентификатор : 0
Формат : MPEG-4 Visual
Профиль формата : Advanced [email protected]
Параметр BVOP формата : 1
Параметр QPel формата : Нет
Параметр GMC формата : Без точки перехода
Параметр матрицы формата : Выборочная
Идентификатор кодека : XVID
Идентификатор кодека/Подсказка : XviD
Продолжительность : 30 м.
Битрейт : 1129 Кбит/сек
Ширина : 512 пикселей
Высота : 384 пикселя
Соотношение сторон : 4:3
Частота кадров : 25,000 кадров/сек
Цветовое пространство : YUV
Субдискретизация насыщенности : 4:2:0
Битовая глубина : 8 бит
Тип развёртки : Прогрессивная
Метод сжатия : С потерями
Бит/(Пиксели*Кадры) : 0.230
Размер потока : 246 Мбайт (90%)
Библиотека кодирования : XviD 1.2.1 (UTC 2008-12-04)
Аудио
Идентификатор : 1
Формат : MPEG Audio
Версия формата : Version 1
Профиль формата : Layer 3
Режим : Joint stereo
Идентификатор кодека : 55
Идентификатор кодека/Подсказка : MP3
Продолжительность : 30 м.
Вид битрейта : Переменный
Битрейт : 106 Кбит/сек
Номинальный битрейт : 128 Кбит/сек
Каналы : 2 канала
Частота : 48,0 КГц
Метод сжатия : С потерями
Размер потока : 23,2 Мбайт (9%)
Выравнивание : Соединение по промежуткам
Продолжительность промежутка : 24 мс. (0,60 видеокадр)
Время предзагрузки промежутка : 566 мс.
Библиотека кодирования : LAME3.98r
Настройки программы : -m j -V 4 -q 2 -lowpass 17 --abr 128

Media Info 2 серии

Общее
Полное имя : О жизни и просветлении. Принципы буддизма с Далай Ламой.2005.[DVDRip]\2 серия.avi
Формат : AVI
Формат/Информация : Audio Video Interleave
Размер файла : 272 Мбайт
Продолжительность : 30 м.
Режим общего битрейта : Переменный
Общий поток : 1247 Кбит/сек
Программа кодирования : VirtualDubMod 1.5.4.1 (build 2178/release)
Библиотека кодирования : VirtualDubMod build 2178/release
Видео
Идентификатор : 0
Формат : MPEG-4 Visual
Профиль формата : Advanced [email protected]
Параметр BVOP формата : 1
Параметр QPel формата : Нет
Параметр GMC формата : Без точки перехода
Параметр матрицы формата : Выборочная
Идентификатор кодека : XVID
Идентификатор кодека/Подсказка : XviD
Продолжительность : 30 м.
Битрейт : 1128 Кбит/сек
Ширина : 544 пикселя
Высота : 416 пикселей
Соотношение сторон : 4:3
Частота кадров : 25,000 кадров/сек
Цветовое пространство : YUV
Субдискретизация насыщенности : 4:2:0
Битовая глубина : 8 бит
Тип развёртки : Прогрессивная
Метод сжатия : С потерями
Бит/(Пиксели*Кадры) : 0.199
Размер потока : 246 Мбайт (90%)
Библиотека кодирования : XviD 1.2.1 (UTC 2008-12-04)
Аудио
Идентификатор : 1
Формат : MPEG Audio
Версия формата : Version 1
Профиль формата : Layer 3
Режим : Joint stereo
Идентификатор кодека : 55
Идентификатор кодека/Подсказка : MP3
Продолжительность : 30 м.
Вид битрейта : Переменный
Битрейт : 106 Кбит/сек
Номинальный битрейт : 128 Кбит/сек
Каналы : 2 канала
Частота : 48,0 КГц
Метод сжатия : С потерями
Размер потока : 23,1 Мбайт (9%)
Выравнивание : Соединение по промежуткам
Продолжительность промежутка : 24 мс. (0,60 видеокадр)
Время предзагрузки промежутка : 593 мс.
Библиотека кодирования : LAME3.98r
Настройки программы : -m j -V 4 -q 2 -lowpass 17 --abr 128
Скриншоты:

Ещё 3

Скриншоты 2 серии

Яндекс.Метрика
Рейтинг@Mail.ru