[ Сегодня на трекере фрилич! Идет свободное скачивание без начисления Download ]

Всемирная история / History of the World: Part I (Мел Брукс / Mel Brooks) [1981 г., комедия, BDRip, 720p] AVO (2 х Михалёв, Иванов) + original (Eng)

 

Создавать темы 24-Авг-2014 03:37

Всемирная история / History of the World: Part I
Год выпуска: 1981
Производство: США
Жанр: комедия
Продолжительность: 01:32:17
Перевод: Авторский (одноголосый, закадровый) 2 х Михалёв, Иванов
Оригинальный аудиопоток: английский
Режиссер: Мел Брукс / Mel Brooks
В ролях: Мел Брукс,Дом ДеЛуис,Мэдлин Кан,Харви Кормен,Клорис Личмен,Рон Кэри,Грегори Хайнс,Памела Стивенсон,Шекки Грин,Сид Сизар
Описание: Сумасбродная комедия в стиле Монти Пайтона, которая стремительно переносит из каменного века во времена Римской империи, а затем и Французской революции, с шутками и приколами — от остроумных до вульгарных. Брукс находит смешное даже в пытках и истязаниях инквизиции — сам играет Торквемаду. Не «покупайтесь» только на финальную рекламу якобы второй части «Всемирной истории» — это такая же шутка, как и все остальное в картине. Уже не один отечественный видеоман сошел с ума, пытаясь отыскать несуществующее продолжение
Сэмпл ,
Качество видео: BDRip
Контейнер: MKV
Стандарт разрешения: 720p
Видео кодек: H.264
Аудио кодек: AC3
Видео: 5300 Kbps, 1280*540 pixels, 2.35:1, 23.976 fps
Аудио : AC3, 384 Kbps, 6 channels, 48.0 KHz, 16 bits - Михалев (поздний)
Аудио #2: AC3, 192 Kbps, 2 channels, 48.0 KHz, 16 bits - Михалев (ранний)
Аудио #3: AC3, 192 Kbps, 2 channels, 48.0 KHz, 16 bits - Иванов
Аудио #4: AC3, 384 Kbps, 6 channels, 48.0 KHz, 16 bits - оригинал

Доп. информация

Переводы взяты с раздачи PUSSEN с тру, за что ему спасибо

Media Info

C:\Users\leha\Desktop\Всемирная история.BDRip 720p.mkv
General
Unique ID : 174304274719020631264164347245037864385 (0x8321C83F0512B39A9908A807DFCBC5C1)
Complete name : C:\Users\leha\Desktop\Всемирная история.BDRip 720p.mkv
Format : Matroska
Format version : Version 4 / Version 2
File size : 4.16 GiB
Duration : 1h 32mn
Overall bit rate : 6 455 Kbps
Encoded date : UTC 2014-08-21 17:02:48
Writing application : mkvmerge v6.1.0 ('Old Devil') built on Mar 4 2013 09:10:42
Writing library : libebml v1.3.0 + libmatroska v1.4.0
Video #1
ID : 1
Format : AVC
Format/Info : Advanced Video Codec
Format profile : [email protected]
Format settings, CABAC : Yes
Format settings, ReFrames : 12 frames
Codec ID : V_MPEG4/ISO/AVC
Duration : 1h 32mn
Bit rate : 5 300 Kbps
Width : 1 280 pixels
Height : 540 pixels
Display aspect ratio : 2.35:1
Frame rate : 23.976 fps
Color space : YUV
Chroma subsampling : 4:2:0
Bit depth : 8 bits
Scan type : Progressive
Bits/(Pixel*Frame) : 0.320
Stream size : 3.33 GiB (80%)
Writing library : x264 core 130 r2273 b3065e6
Encoding settings : cabac=1 / ref=12 / deblock=1:-1:-1 / analyse=0x3:0x133 / me=umh / subme=11 / psy=1 / psy_rd=1.00:0.15 / mixed_ref=1 / me_range=32 / chroma_me=1 / trellis=2 / 8x8dct=1 / cqm=0 / deadzone=21,11 / fast_pskip=1 / chroma_qp_offset=-3 / threads=12 / lookahead_threads=2 / sliced_threads=0 / nr=0 / decimate=1 / interlaced=0 / bluray_compat=0 / constrained_intra=0 / bframes=8 / b_pyramid=2 / b_adapt=2 / b_bias=0 / direct=3 / weightb=1 / open_gop=0 / weightp=2 / keyint=250 / keyint_min=23 / scenecut=40 / intra_refresh=0 / rc_lookahead=60 / rc=2pass / mbtree=1 / bitrate=5300 / ratetol=1.0 / qcomp=0.60 / qpmin=0 / qpmax=69 / qpstep=4 / cplxblur=20.0 / qblur=0.5 / ip_ratio=1.40 / aq=1:1.00
Language : English
Audio #2
ID : 2
Format : AC-3
Format/Info : Audio Coding 3
Mode extension : CM (complete main)
Codec ID : A_AC3
Duration : 1h 32mn
Bit rate mode : Constant
Bit rate : 384 Kbps
Channel(s) : 6 channels
Channel positions : Front: L C R, Side: L R, LFE
Sampling rate : 48.0 KHz
Bit depth : 16 bits
Compression mode : Lossy
Stream size : 253 MiB (6%)
Title : Михалев поздний
Audio #3
ID : 3
Format : AC-3
Format/Info : Audio Coding 3
Mode extension : CM (complete main)
Codec ID : A_AC3
Duration : 1h 32mn
Bit rate mode : Constant
Bit rate : 192 Kbps
Channel(s) : 2 channels
Channel positions : Front: L R
Sampling rate : 48.0 KHz
Bit depth : 16 bits
Compression mode : Lossy
Stream size : 127 MiB (3%)
Title : Михалев ранний
Audio #4
ID : 4
Format : AC-3
Format/Info : Audio Coding 3
Mode extension : CM (complete main)
Codec ID : A_AC3
Duration : 1h 32mn
Bit rate mode : Constant
Bit rate : 192 Kbps
Channel(s) : 2 channels
Channel positions : Front: L R
Sampling rate : 48.0 KHz
Bit depth : 16 bits
Compression mode : Lossy
Stream size : 127 MiB (3%)
Title : Иванов
Audio #5
ID : 5
Format : AC-3
Format/Info : Audio Coding 3
Mode extension : CM (complete main)
Codec ID : A_AC3
Duration : 1h 32mn
Bit rate mode : Constant
Bit rate : 384 Kbps
Channel(s) : 6 channels
Channel positions : Front: L C R, Side: L R, LFE
Sampling rate : 48.0 KHz
Bit depth : 16 bits
Compression mode : Lossy
Stream size : 253 MiB (6%)
Title : оригинал

Скриншоты

Яндекс.Метрика
Рейтинг@Mail.ru