[ Сегодня на трекере фрилич! Идет свободное скачивание без начисления Download ]

Это развод! / Настоящий лунный свет / Serious Moonlight (Шерил Хайнс / Cheryl Hines) [2009 г., мелодрама, комедия, криминал, BDRip] MVO

 

Создавать темы 24-Авг-2014 03:30

-Это развод! / Настоящий лунный свет / Serious Moonlight- Производство: США, Night and Day Pictures, All For A Films
Год выпуска: 2009 г.
Жанр: мелодрама, комедия, криминал
Продолжительность: 1:24:02
Мировая премьера: 25 апреля 2009
Российская премьера: 29 апреля 2010, «Союз»
Дата выхода DVD: 8 апреля 2010, «Союз-Видео»
Перевод: Профессиональный (многоголосый, закадровый) [R5]-Режиссер: Шерил Хайнс / Cheryl Hines
В ролях: Мег Райан, Тимоти Хаттон, Кристен Белл, Джастин Лонг, Энди Острой, Натан Дин, Кимберли Петерсон, Дерек Картер, Билл Паркс-Описание: Узнав, что муж полюбил другую и улетает в Париж, Луиза решила его не отпускать… связав мужа скотчем. Попытки вспомнить всё хорошее, что было в их совместной жизни, не увенчались успехом. Стараясь выбраться из заключения, неверный супруг привлёк внимание газонокосильщика. Вот только изменник грабителю не товарищ. Вскоре Луиза с мужем и его любовницей окажутся в заложниках у целой банды…- -Качество видео: BDRip
Контейнер: AVI
Видео кодек: XviD
Аудио кодек: AC3
Видео: 720x400 (1.80:1), 23.976 fps, XviD build 50 ~2081 kbps avg, 0.30 bit/pixel
Аудио: 48 kHz, AC3 Dolby Digital, 3/2 (L,C,R,l,r) + LFE ch, ~384 kbps
Cубтитры: отсутствуют

Media Info

General
Complete name : D:\Nastoyashiy.lunniy.svet.2009.RUS.BDRip.XviD.AC3.avi
Format : AVI
Format/Info : Audio Video Interleave
File size : 1.45 GiB
Duration : 1h 24mn
Overall bit rate : 2 475 Kbps
Writing application : VirtualDubMod 1.5.10.3 | www.virtualdub-fr.org || (build 2550/release)
Comment : 09.04.2010
Video
ID : 0
Format : MPEG-4 Visual
Format profile : Advanced [email protected]
Format settings, BVOP : 1
Format settings, QPel : No
Format settings, GMC : No warppoints
Format settings, Matrix : Default (MPEG)
Codec ID : XVID
Codec ID/Hint : XviD
Duration : 1h 24mn
Bit rate : 2 082 Kbps
Width : 720 pixels
Height : 400 pixels
Display aspect ratio : 16:9
Frame rate : 23.976 fps
Color space : YUV
Chroma subsampling : 4:2:0
Bit depth : 8 bits
Scan type : Progressive
Compression mode : Lossy
Bits/(Pixel*Frame) : 0.301
Stream size : 1.22 GiB (84%)
Writing library : XviD 1.2.1 (UTC 2008-12-04)
Audio
ID : 1
Format : AC-3
Format/Info : Audio Coding 3
Mode extension : CM (complete main)
Format settings, Endianness : Big
Codec ID : 2000
Duration : 1h 24mn
Bit rate mode : Constant
Bit rate : 384 Kbps
Channel(s) : 6 channels
Channel positions : Front: L C R, Side: L R, LFE
Sampling rate : 48.0 KHz
Bit depth : 16 bits
Compression mode : Lossy
Stream size : 231 MiB (16%)
Alignment : Split accross interleaves
Interleave, duration : 42 ms (1.00 video frame)
Interleave, preload duration : 500 ms

Скриншоты

Яндекс.Метрика
Рейтинг@Mail.ru