Миларепа / Milarepa (Нетен Чоклинг / Neten Chokling) [2006 г., документальный, биография, драма, приключения, DVDRip] VO + Org (Tib) + Sub (Rus, Eng)

 

Создавать темы 24-Авг-2014 03:18

Миларепа / Milarepa-Великий йог Тибета- Год выпуска: 2006 г.
Производство: Бутан
Жанр: документальный, биография, драма, приключения
Продолжительность: 01:31:36
Мировая премьера: 15 февраля 2006
Российская премьера: 2 июня 2011, «Экспонента»
Дата выхода DVD: 21 апреля 2011, «Новый Диск»
Перевод: Любительский (одноголосый, закадровый)
Оригинальный аудиопоток: тибетский
Режиссёр: Нетен Чоклинг / Neten Chokling-В ролях: Гимьян Лодро, Келсанг Чукай Тетонг, Дхакпа Цамчоу, Оргьен Тобгьял-Описание: Фильм об учителе тибетского буддизма, знаменитом йоге-практике, поэте, авторе многих песен и баллад, до сих пор популярных на Тибете, одном из основателей школы кагью - Джецуне Миларепе, который первым (после 12 лет медитации) достиг состояния Ваджрахары за одну жизнь, не имея заслуг в предыдущих рождениях.
Человек, сравнимый своим аскетизмом с Буддой жил с 1040 по 1123 гг.
-*7.2 *7.03Качество видео: DVDRip
Контейнер: MKV
Видео кодек: XviD
Аудио кодек: AC3
Видео: 720x400, 1634 kbps, 23.976 fps, 0.237 bit/pixel
Аудио #1: Russian: 192 kbps, 2 ch, 48.0 kHz
Аудио #2: Tibetan: 448 kbps, 6 ch, 48.0 kHz
Cубтитры: русские, английские

Media Info

Общее
Уникальный идентификатор : 184295008621801547804644630441170795843 (0x8AA5ED754407522AB4463C9878537D43)
Полное имя : Миларепа_Milarepa.2006.[DVDRip](sub.rus.eng).mkv
Формат : Matroska
Версия формата : Version 2
Размер файла : 1,46 Гбайт
Продолжительность : 1 ч. 31 м.
Общий поток : 2276 Кбит/сек
Дата кодирования : UTC 2010-01-20 07:06:48
Программа кодирования : mkvmerge v3.0.0 ('Hang up your Hang-Ups') built on Dec 12 2009 15:20:35
Библиотека кодирования : libebml v0.7.9 + libmatroska v0.8.1
Видео
Идентификатор : 1
Формат : AVC
Формат/Информация : Advanced Video Codec
Профиль формата : [email protected]
Параметр CABAC формата : Да
Параметр ReFrames формата : 5 кадров
Идентификатор кодека : V_MPEG4/ISO/AVC
Продолжительность : 1 ч. 31 м.
Битрейт : 1634 Кбит/сек
Ширина : 720 пикселей
Высота : 400 пикселей
Соотношение сторон : 16:9
Режим частоты кадров : Постоянный
Частота кадров : 23,976 кадра/сек
Цветовое пространство : YUV
Субдискретизация насыщенности : 4:2:0
Битовая глубина : 8 бит
Тип развёртки : Прогрессивная
Бит/(Пиксели*Кадры) : 0.237
Размер потока : 1,02 Гбайт (70%)
Библиотека кодирования : x264 core 80 r1376M 3feaec2
Настройки программы : cabac=1 / ref=5 / deblock=1:-1:-1 / analyse=0x3:0x133 / me=umh / subme=6 / psy=1 / psy_rd=1.0:0.0 / mixed_ref=1 / me_range=16 / chroma_me=1 / trellis=2 / 8x8dct=1 / cqm=0 / deadzone=21,11 / fast_pskip=1 / chroma_qp_offset=-2 / threads=1 / sliced_threads=0 / nr=0 / decimate=1 / mbaff=0 / constrained_intra=0 / bframes=3 / b_pyramid=0 / b_adapt=2 / b_bias=0 / direct=3 / wpredb=1 / wpredp=2 / keyint=250 / keyint_min=25 / scenecut=40 / rc_lookahead=40 / rc=2pass / mbtree=1 / bitrate=1634 / ratetol=1.0 / qcomp=0.60 / qpmin=10 / qpmax=51 / qpstep=4 / cplxblur=20.0 / qblur=0.5 / ip_ratio=1.40 / aq=1:1.00
Язык : English
Default : Нет
Forced : Нет
Аудио #1
Идентификатор : 2
Формат : AC-3
Формат/Информация : Audio Coding 3
Расширение режима : CM (complete main)
Параметр Endianness формата : Big
Идентификатор кодека : A_AC3
Продолжительность : 1 ч. 31 м.
Вид битрейта : Постоянный
Битрейт : 192 Кбит/сек
Каналы : 2 канала
Расположение каналов : Front: L R
Частота : 48,0 КГц
Битовая глубина : 16 бит
Метод сжатия : С потерями
Размер потока : 126 Мбайт (8%)
Язык : Russian
Default : Да
Forced : Нет
Аудио #2
Идентификатор : 3
Формат : AC-3
Формат/Информация : Audio Coding 3
Расширение режима : CM (complete main)
Параметр Endianness формата : Big
Идентификатор кодека : A_AC3
Продолжительность : 1 ч. 31 м.
Вид битрейта : Постоянный
Битрейт : 448 Кбит/сек
Каналы : 6 каналов
Расположение каналов : Front: L C R, Side: L R, LFE
Частота : 48,0 КГц
Битовая глубина : 16 бит
Метод сжатия : С потерями
Размер потока : 294 Мбайт (20%)
Язык : Tibetan
Default : Нет
Forced : Нет
Текст #1
Идентификатор : 4
Формат : UTF-8
Идентификатор кодека : S_TEXT/UTF8
Идентификатор кодека/Информация : UTF-8 Plain Text
Заголовок : RUS
Язык : Russian
Default : Да
Forced : Нет
Текст #2
Идентификатор : 5
Формат : UTF-8
Идентификатор кодека : S_TEXT/UTF8
Идентификатор кодека/Информация : UTF-8 Plain Text
Заголовок : ENG
Язык : English
Default : Нет
Forced : Нет

Ещё скриншоты

Яндекс.Метрика
Рейтинг@Mail.ru