[ Сегодня на трекере фрилич! Идет свободное скачивание без начисления Download ]

Годзилла / Godzilla (Гарет Эдвардс / Gareth Edwards) [2014 г., Фантастика, боевик, приключения, HDRip] Dub (Чистый звук)

 

Создавать темы 24-Авг-2014 03:07

-Годзилла / Godzilla- Производство: США, Япония, Warner Bros., Legendary Pictures, Disruption Entertainment
Год выпуска: 2014 г.
Жанр: Фантастика, боевик, приключения
Продолжительность: 01:56:30
Мировая премьера: 8 мая 2014
Российская премьера: 15 мая 2014, «Каро-Премьер»
Дата выхода DVD: 18 сентября 2014, «CP Дистрибуция»
Дата выхода Blu-Ray: 18 сентября 2014, «CP Дистрибуция»
Перевод: Профессиональный (полное дублирование) [Чистый звук]-Режиссер: Гарет Эдвардс / Gareth Edwards
В ролях: Аарон Тейлор-Джонсон, Брайан Крэнстон, Элизабет Олсен, Жюльет Бинош, Дэвид Стрэтэйрн, Кен Ватанабе, Салли Хокинс, Эл Сапьенза, Брайан Маркинсон, Ричард Т. Джонс-Описание: Человечество случайно разбудило гигантское древнее существо, что повлекло за собой ужасающие последствия…- -Качество видео: HDRip
Контейнер: AVI
Видео кодек: XviD
Аудио кодек: AC3
Видео: 720x304 (2.35:1), 23.976 fps, XviD ~1429 kbps avg, 0.272 bit/pixel
Аудио: 48 kHz, AC3, 2 ch, ~256.00 kbps
Cубтитры: Отсутствуют

Media Info

Общее
Полное имя : G0dz1lla.2014.D.HDRip.1.46Gb.avi
Формат : AVI
Формат/Информация : Audio Video Interleave
Размер файла : 1,46 Гбайт
Продолжительность : 2 ч. 3 м.
Общий поток : 1694 Кбит/сек
Программа кодирования : VirtualDubMod 1.5.10.2 (build 2540/release)
Библиотека кодирования : VirtualDubMod build 2540/release
Видео
Идентификатор : 0
Формат : MPEG-4 Visual
Профиль формата : Advanced [email protected]
Параметр BVOP формата : 2
Параметр QPel формата : Нет
Параметр GMC формата : Без точки перехода
Параметр матрицы формата : Default (MPEG)
Идентификатор кодека : XVID
Идентификатор кодека/Подсказка : XviD
Продолжительность : 2 ч. 3 м.
Битрейт : 1429 Кбит/сек
Ширина : 720 пикселей
Высота : 304 пикселя
Соотношение сторон : 2,35:1
Частота кадров : 23,976 кадра/сек
Цветовое пространство : YUV
Субдискретизация насыщенности : 4:2:0
Битовая глубина : 8 бит
Тип развёртки : Прогрессивная
Метод сжатия : С потерями
Бит/(Пиксели*Кадры) : 0.272
Размер потока : 1,23 Гбайт (84%)
Библиотека кодирования : XviD 1.2.1 (UTC 2008-12-04)
Аудио
Идентификатор : 1
Формат : AC-3
Формат/Информация : Audio Coding 3
Расширение режима : CM (complete main)
Параметр Endianness формата : Big
Идентификатор кодека : 2000
Продолжительность : 2 ч. 3 м.
Вид битрейта : Постоянный
Битрейт : 256 Кбит/сек
Каналы : 2 канала
Расположение каналов : Front: L R
Частота : 48,0 КГц
Битовая глубина : 16 бит
Метод сжатия : С потерями
Размер потока : 225 Мбайт (15%)
Выравнивание : Разделение по промежуткам
Продолжительность промежутка : 42 мс. (1,00 видеокадр)
Время предзагрузки промежутка : 500 мс

Скриншоты

Яндекс.Метрика
Рейтинг@Mail.ru