[ Сегодня на трекере фрилич! Идет свободное скачивание без начисления Download ]

Судьба / Sookmyeong (2008) DVDRip

 

Создавать темы 23-Авг-2014 21:13

-Судьба / Sookmyeong (2008) DVDRip- Русское название: Судьба
Оригинальное название: Sookmyeong
Год выпуска: 2008
Страна: Южная Корея
Жанр: Драма, Криминал--Описание фильма:
Четверо друзей планируют украсть деньги, предназначенные для главаря одной из банд. Им удается осуществить задуманное, однако, из-за предательства одного, схваченными оказываются все. Теперь лидер четвёрки должен пойти в тюрьму, чтобы остальные остались в живых. По возвращении он обнаруживает, как круто изменились судьбы его бывших друзей.--Режиссер: Ким Хэ Гон
Актеры: Квон Сан У, Джи-а Мин, Сонг Сын-хон...
Продолжительность: 02:04:20
Перевод: Одноголосый закадровый
Дата мировой премьеры: 20 марта 2008
Видеокодек: Xvid
Битрейт видео: ~1337 Кбит/сек
Размер кадра: 720x304
Качество видео: DVDRip
Аудиокодек: MP3
Audio#1: 109(128) Кбит/сек, 48,0 КГц, 2 канала, (Ru)
Audio#2: 108(128) Кбит/сек, 48,0 КГц, 2 канала, (Korean)

MediaInfo:

Общее
Полное имя                               : :\\Sookmyeong (2008) DVDRip.avi
Формат                                   : AVI
Формат/Информация                        : Audio Video Interleave
Размер файла                             : 1,37 Гбайт
Продолжительность                        : 2 ч. 4 м.
Режим общего битрейта                    : Переменный
Общий поток                              : 1575 Кбит/сек
Программа кодирования                    : VirtualDubMod 1.5.4.1 (build 2178/release)
Библиотека кодирования                   : VirtualDubMod build 2178/release
Видео
Идентификатор                            : 0
Формат                                   : MPEG-4 Visual
Профиль формата                          : Advanced [email protected]
Параметр BVOP формата                    : 1
Параметр QPel формата                    : Нет
Параметр GMC формата                     : Без точки перехода
Параметр матрицы формата                 : Выборочная
Идентификатор кодека                     : XVID
Идентификатор кодека/Подсказка           : XviD
Продолжительность                        : 2 ч. 4 м.
Битрейт                                  : 1337 Кбит/сек
Ширина                                   : 720 пикселей
Высота                                   : 304 пикселя
Соотношение сторон                       : 2,35:1
Частота кадров                           : 23,976 кадра/сек
Цветовое пространство                    : YUV
Субдискретизация насыщенности            : 4:2:0
Битовая глубина                          : 8 бит
Тип развёртки                            : Прогрессивная
Метод сжатия                             : С потерями
Бит/(Пиксели*Кадры)                      : 0.255
Размер потока                            : 1,16 Гбайт (85%)
Библиотека кодирования                   : XviD 1.2.0.dev47 (UTC 2006-11-01)
Аудио #1
Идентификатор                            : 1
Формат                                   : MPEG Audio
Версия формата                           : Version 1
Профиль формата                          : Layer 3
Режим                                    : Joint stereo
Расширение режима                        : MS Stereo
Идентификатор кодека                     : 55
Идентификатор кодека/Подсказка           : MP3
Продолжительность                        : 2 ч. 4 м.
Вид битрейта                             : Переменный
Битрейт                                  : 109 Кбит/сек
Номинальный битрейт                      : 128 Кбит/сек
Каналы                                   : 2 канала
Частота                                  : 48,0 КГц
Метод сжатия                             : С потерями
Размер потока                            : 96,7 Мбайт (7%)
Выравнивание                             : Соединение по промежуткам
Продолжительность промежутка             : 24  мс. (0,58 видеокадр)
Время предзагрузки промежутка            : 169  мс.
Библиотека кодирования                   : LAME3.97
Настройки программы                      : -m j -V 4 -q 2 -lowpass 17 --abr 128
Язык                                     : Russian
Аудио #2
Идентификатор                            : 2
Формат                                   : MPEG Audio
Версия формата                           : Version 1
Профиль формата                          : Layer 3
Режим                                    : Joint stereo
Расширение режима                        : MS Stereo
Идентификатор кодека                     : 55
Идентификатор кодека/Подсказка           : MP3
Продолжительность                        : 2 ч. 4 м.
Вид битрейта                             : Переменный
Битрейт                                  : 108 Кбит/сек
Номинальный битрейт                      : 128 Кбит/сек
Каналы                                   : 2 канала
Частота                                  : 48,0 КГц
Метод сжатия                             : С потерями
Размер потока                            : 95,9 Мбайт (7%)
Выравнивание                             : Соединение по промежуткам
Продолжительность промежутка             : 24  мс. (0,58 видеокадр)
Время предзагрузки промежутка            : 170  мс.
Библиотека кодирования                   : LAME3.97
Настройки программы                      : -m j -V 4 -q 2 -lowpass 17 --abr 128
Язык                                     : Korean

Скриншоты:

Яндекс.Метрика
Рейтинг@Mail.ru