Полицейская история 2 / Police Story 2 / Ging chaat goo si 2 (1988) DVDRip

 

Создавать темы 23-Авг-2014 21:12

- Полицейская история 2 / Police Story 2 / Ging chaat goo si 2 (1988) DVDRip - Год выпуска: 1988
Производство: Гонконг / Golden Way Films Ltd., Paragon Films Ltd.
Жанр: Боевик, Триллер, Комедия, КриминалОписание фильма:
На свободу выходит босс наркомафии Ку, но наркоторговля не остановлена, и первая его мысль после заключения — отомстить полицейскому Кевину Ченгу, упрятавшему его за решетку. Ку нанимает киллера, который, впрочем, явно не в себе...
Тем временем группа изощренных террористов пугает население серией взрывов в людных местах и вымогает 10 миллионов долларов у одной торговой фирмы. Справиться с этой ситуацией и спасти любимую девушку под силу только полицейскому Кевину Ченгу...
Режиссер: Джеки Чан
Актеры: Джеки Чан, Мэгги Чун, Квок-Хун Лам, Билл Тун, Бенни Лай, Джон Чунг, Чарли Чо, Юэнь Чор, Бен Лам, Чан Чи Фай Санни
Продолжительность: 01:41:41
Качество видео: DVDRip
Перевод: Многоголосый закадровый, профессиональный
Дата мировой премьеры: 13 августа 1988
Дата выхода DVD релиза: 5 февраля 2009, «Синема Трейд»
Видео: MPEG-4 DivX 5, 704x304 (2.35:1), 25.000 fps, ~1531 Kb/s (0.286 bit/pixel)
Аудио: AC-3, 48.0 KHz, 5.1 ch, 384 Kb/s, CBR | Russian

MediaInfo

Общее
Полное имя                               : Полицейская история 2.avi
Формат                                   : AVI
Формат/Информация                        : Audio Video Interleave
Размер файла                             : 1,37 Гбайт
Продолжительность                        : 1 ч. 41 м.
Общий поток                              : 1925 Кбит/сек
Программа кодирования                    : VirtualDubMod 1.5.10.2 (build 2542/release)
Библиотека кодирования                   : VirtualDubMod build 2542/release
Видео
Идентификатор                            : 0
Формат                                   : MPEG-4 Visual
Параметр BVOP формата                    : 3
Параметр QPel формата                    : Нет
Параметр GMC формата                     : Без точки перехода
Параметр матрицы формата                 : Default (H.263)
Режим смешивания                         : Сжатый битовый поток
Идентификатор кодека                     : DX50
Идентификатор кодека/Подсказка           : DivX 5
Продолжительность                        : 1 ч. 41 м.
Битрейт                                  : 1531 Кбит/сек
Ширина                                   : 704 пикселя
Высота                                   : 304 пикселя
Соотношение сторон                       : 2,35:1
Частота кадров                           : 25,000 кадров/сек
Цветовое пространство                    : YUV
Субдискретизация насыщенности            : 4:2:0
Битовая глубина                          : 8 бит
Тип развёртки                            : Прогрессивная
Метод сжатия                             : С потерями
Бит/(Пиксели*Кадры)                      : 0.286
Размер потока                            : 1,09 Гбайт (80%)
Библиотека кодирования                   : DivX 6.8.2 (UTC 2008-05-17)
Аудио
Идентификатор                            : 1
Формат                                   : AC-3
Формат/Информация                        : Audio Coding 3
Расширение режима                        : CM (complete main)
Параметр Endianness формата              : Big
Идентификатор кодека                     : 2000
Продолжительность                        : 1 ч. 41 м.
Вид битрейта                             : Постоянный
Битрейт                                  : 384 Кбит/сек
Каналы                                   : 6 каналов
Расположение каналов                     : Front: L C R, Side: L R, LFE
Частота                                  : 48,0 КГц
Битовая глубина                          : 16 бит
Метод сжатия                             : С потерями
Размер потока                            : 279 Мбайт (20%)
Выравнивание                             : Соединение по промежуткам
Продолжительность промежутка             : 40  мс. (1,00 видеокадр)
Время предзагрузки промежутка            : 512  мс.

Скриншоты:

-
Яндекс.Метрика
Рейтинг@Mail.ru