Алексей Коньков - Обучающий видеокурс Pinnacle Studio 16 (2012-2013) PCRec

 

Создавать темы 03-Окт-2013 12:45

Автор (режиссер): Алексей Коньков
Название: Обучающий видеокурс Pinnacle Studio 16
Год выпуска: 2012-2013
Жанр: Обучающие видеокурсы
Продолжительность: 03:43:57
Описание:
Данный видеокурс состоит из 28 обучающих видео продолжительностью 3 часа 44 минуты и предназначен для ознакомления с интерфейсом программы Pinnacle Studio 16. Также представлены примеры обработки видео: наложение движущегося изображения на видео, создание слайд-шоу, работа с эффектами и другое.
Качество видео: PCRec
Видеокодек: MPEG-4
Битрейт видео: ~1210 kb/s
Размер кадра: 1920x1080 (16:9)
Аудиокодек: AAC
Битрейт аудио: 144 kb/s,1 Ch,44100 Hz

Содержание курса:

01. Обзор
02. Слайд-шоу
03. Титры часть 1
03. Титры часть 2
04. Делаем НЛО
05. Футажи
06. Поворот видео
07. Разбивка на сцены
08. Ключ цветности хромокей
09. Создание меню для DVD
10. Работа со звуком
11. Картинка в картинке
12. Фото для студии
13. DIF+Alp Футажи
14. Создание меню для DVD 2
15. Скорость и обратное воспроизведение.
16. Работа со звуком 2
17. Многостраничное меню
18. Вставляем логотип
19. Добавляем аннотации в видео
20. Движущиеся кнопки меню
21. Футажи ч2
22. FX эффекты
23. Особенности установки
24. Adorage Адорадж переходы
25. Pro Drenalin
26. Линия времени
27. Adorage Адорадж и PiP
28. Adorage Адорадж переходы эффекты

MediaInfo:

Формат: MPEG-4
Профиль формата: Base Media / Version 2
Идентификатор кодека: mp42
Размер файла: 209 Мбайт
Продолжительность: 20 м.
Режим общего битрейта: Переменный
Общий поток: 1416 Кбит/сек
Дата кодирования: UTC 2013-03-05 16:52:28
Дата пометки: UTC 2013-03-05 16:52:28
gsst: 0
gstd: 1238226
gssd: B55AC0107HH1364707878841115
Видео
Идентификатор: 1
Формат: AVC
Формат/Информация: Advanced Video Codec
Профиль формата: [email protected]
Параметр CABAC формата: Да
Параметр ReFrames формата: 1 кадр
Параметр GOP формата: M=1, N=20
Идентификатор кодека: avc1
Идентификатор кодека/Информация: Advanced Video Coding
Продолжительность: 20 м.
Битрейт: 1270 Кбит/сек
Максимальный битрейт: 5704 Кбит/сек
Ширина: 1920 пикселей
Высота: 1080 пикселей
Соотношение сторон: 16:9
Режим частоты кадров: Постоянный
Частота кадров: 10,000 кадров/сек
Цветовое пространство: YUV
Субдискретизация насыщенности: 4:2:0
Битовая глубина: 8 бит
Тип развёртки: Прогрессивная
Бит/(Пиксели*Кадры): 0.061
Размер потока: 187 Мбайт (90%)
Дата пометки: UTC 2013-03-05 16:52:38
Аудио
Идентификатор: 2
Формат: AAC
Формат/Информация: Advanced Audio Codec
Профиль формата: LC
Идентификатор кодека: 40
Продолжительность: 20 м.
Вид битрейта: Переменный
Битрейт: 144 Кбит/сек
Максимальный битрейт: 151 Кбит/сек
Каналы: 1 канал
Расположение каналов: Front: C
Частота: 44,1 КГц
Метод сжатия: С потерями
Размер потока: 21,3 Мбайт (10%)
Заголовок: IsoMedia File Produced by Google, 5-11-2011
Дата кодирования: UTC 2013-03-05 16:52:34
Дата пометки: UTC 2013-03-05 16:52:38

Скриншоты

Яндекс.Метрика
Рейтинг@Mail.ru