[ Сегодня на трекере фрилич! Идет свободное скачивание без начисления Download ]

Новый Камеди Клаб в Юрмале / Комеди Клаб / Comedy Club / Выпуск №10 (22.08.2014) WEB-DLRip

 

Создавать темы 23-Авг-2014 01:59

-Новый Камеди Клаб в Юрмале / Комеди Клаб / Comedy Club / Выпуск №10 (22.08.2014) WEB-DLRip- Режиссер / Телекомпания:
тнт
Год выпуска: 2014
Жанр: Телепередача
Описание:
Начало празднования десятилетнего юбилея задаст тон всему фестивалю. Эксклюзивные декорации, невероятные сценические спецэффекты, потрясающее звуковое и световое оснащение, отличные подарки гостей, пиротехническое шоу. Множество «звездных» друзей Comedy со всего мира, зажигают ВСЕ резиденты. Тонны юмора и невероятного драйва на событии, которое нельзя пропустить. Хозяева вечеринки Гавр и Тимур Батрутдинов раскроют гостям новейшие мировые веяния: планкинг, оулинг, баггетинг, покажут, как танцевать настоящий харлем-шейк в стиле камеди и многое другое. На этой вечеринке популярные up – тренды смешают с высоким юмором, заправят качественной музыкой в формате live. И кончено же, как и каждую ночь, на сцене будет пока засекреченная мировая звезда!
Продолжительность: 00:49:51
Качество видео: WEB-DLRip
Видеокодек: XviD
Битрейт видео: 1650 kb/s
Размер кадра: 720x400
Аудиокодек: MP3, 2 ch
Битрейт аудио: 128 kb/s

MI

Общее
Полное имя                               : D:\Раздачи\Novyiy Kamedi Klab v YUrmale. Vyipusk 10 (22.08.2014) WEB-DLRip.NNM-CLUB.avi
Формат                                   : AVI
Формат/Информация                        : Audio Video Interleave
Размер файла                             : 638 Мбайт
Продолжительность                        : 49 м.
Общий поток                              : 1790 Кбит/сек
Программа кодирования                    : Lavf55.43.100
Видео
Идентификатор                            : 0
Формат                                   : MPEG-4 Visual
Профиль формата                          : [email protected]
Параметр BVOP формата                    : Нет
Параметр QPel формата                    : Нет
Параметр GMC формата                     : Без точки перехода
Параметр матрицы формата                 : Default (H.263)
Идентификатор кодека                     : XVID
Идентификатор кодека/Подсказка           : XviD
Продолжительность                        : 49 м.
Битрейт                                  : 1650 Кбит/сек
Ширина                                   : 720 пикселей
Высота                                   : 400 пикселей
Соотношение сторон                       : 16:9
Частота кадров                           : 25,000 кадров/сек
Цветовое пространство                    : YUV
Субдискретизация насыщенности            : 4:2:0
Битовая глубина                          : 8 бит
Тип развёртки                            : Прогрессивная
Метод сжатия                             : С потерями
Бит/(Пиксели*Кадры)                      : 0.229
Размер потока                            : 588 Мбайт (92%)
Библиотека кодирования                   : XviD 64
Аудио
Идентификатор                            : 1
Формат                                   : MPEG Audio
Версия формата                           : Version 1
Профиль формата                          : Layer 3
Режим                                    : Joint stereo
Расширение режима                        : MS Stereo
Идентификатор кодека                     : 55
Идентификатор кодека/Подсказка           : MP3
Продолжительность                        : 49 м.
Вид битрейта                             : Постоянный
Битрейт                                  : 128 Кбит/сек
Каналы                                   : 2 канала
Частота                                  : 44,1 КГц
Метод сжатия                             : С потерями
Размер потока                            : 45,6 Мбайт (7%)
Выравнивание                             : Соединение по промежуткам
Продолжительность промежутка             : 26  мс. (0,65 видеокадр)
Время предзагрузки промежутка            : 130  мс.

Скриншоты:

Скриншоты:
Яндекс.Метрика
Рейтинг@Mail.ru