[ Сегодня на трекере фрилич! Идет свободное скачивание без начисления Download ]

Николай Гущин - Обучающий видеокурс Архитектурная визуализация в ArchiCAD и Cinema 4D (2013) PCRec

 

Создавать темы 03-Окт-2013 12:43

Автор (режиссер): Николай Гущин
Название: Архитектурная визуализация в ArchiCAD и Cinema 4D
Год выпуска: 2013
Жанр: Обучающий видеокурс
Продолжительность: 01:09:05
Описание:
Инструктор Николай Гущин - архитектор по образованию. В данном курсе он подробно покажет как экспортировать проекты из ArchiCAD в Cinema 4D, наполнить композицию элементами и завершить это все в эффектном движении физического рендера. Вы познакомитесь с модулем Hair на практике, а также немало внимания уделено так называемому Контент Браузеру - неотъемлемой части Cinema 4D. Как всегда, надеемся Вы получите порцию новых знаний.
Качество видео: PCRec
Видеокодек: AVC
Битрейт видео: ~29.97fps 3115kbps
Размер кадра: 1280x720
Аудиокодек: AAC
Битрейт аудио: 48000Hz stereo 192kbps
Доп.материалы: Имеются

Содержание курса:

1. Введение
2. Экспорт из ArchiCAD в Cinema 4D
3. Импорт объектов в Cinema 4D
4. Создание освещения, неба и окружения
5. Текстурирование объектов
6. Используем Hair для создания травы
7. Добавляем деревья в Cinema 4D
8. Bonus (доработка картинки в Фотошопе)
9. Файлы проектов (исходники)

MediaInfo:

Общее
Полное имя: D:АндрейАрхитектурная визуализация в ArchiCAD и Cinema 4D
Формат: MPEG-4
Профиль формата: Base Media / Version 2
Идентификатор кодека: mp42
Размер файла: 136 Мбайт
Режим общего битрейта: Переменный
Общий поток: 3310 Кбит/сек
Дата кодирования: UTC 2013-07-13 22:15:21
Дата пометки: UTC 2013-07-13 22:15:27
©TIM: 00:00:00:00
©TSC: 30000
©TSZ: 1001
Видео
Идентификатор: 1
Формат: AVC
Формат/Информация: Advanced Video Codec
Профиль формата: [email protected]
Параметр CABAC формата: Да
Параметр ReFrames формата: 3 кадра
Идентификатор кодека: avc1
Идентификатор кодека/Информация: Advanced Video Coding
Вид битрейта: Переменный
Битрейт: 3115 Кбит/сек
Максимальный битрейт: 10000 Кбит/сек
Ширина: 1280 пикселей
Высота: 720 пикселей
Соотношение сторон: 16:9
Режим частоты кадров: Постоянный
Частота кадров: 29,970 кадров/сек
Стандарт вещания: NTSC
Цветовое пространство: YUV
Субдискретизация насыщенности: 4:2:0
Битовая глубина: 8 бит
Тип развёртки: Прогрессивная
Бит/(Пиксели*Кадры): 0.113
Размер потока: 128 Мбайт (94%)
Язык: English
Дата кодирования: UTC 2013-07-13 22:15:21
Дата пометки: UTC 2013-07-13 22:15:21
Аудио
Идентификатор: 2
Формат: AAC
Формат/Информация: Advanced Audio Codec
Профиль формата: LC
Идентификатор кодека: 40
Вид битрейта: Переменный
Битрейт: 192 Кбит/сек
Максимальный битрейт: 270 Кбит/сек
Каналы: 2 канала
Расположение каналов: Front: L R
Частота: 48,0 КГц
Метод сжатия: С потерями
Размер потока: 7,80 Мбайт (6%)
Размер потока оригинала: 7,80 Мбайт (6%)
Язык: English
Дата кодирования: UTC 2013-07-13 22:15:21
Дата пометки: UTC 2013-07-13 22:15:21

Скриншоты

Яндекс.Метрика
Рейтинг@Mail.ru