[ Сегодня на трекере фрилич! Идет свободное скачивание без начисления Download ]

Настоящая кровь / True Blood / Сезон: 7 / Серии: 9 из 10 (Майкл Леманн / Michael Lehmann, ...) [2014 г., фэнтези, триллер, драма, мелодрама, детектив, ..., WEB-DLRip ] MVO (BaibaKo) + Original (Eng) [обновляемая]

 

Создавать темы 22-Авг-2014 03:49

-Настоящая кровь / True Blood
«You Know You're Hooked»
-- Производство: США
Жанр: фэнтези, триллер, драма, мелодрама, детектив, ...
Год выпуска: 2014 г.-Премьера (мир): 7 сентября 2008, ...
Премьера (РФ): 23 октября 2009-Релиз:
Перевод: Профессиональный (многоголосый, закадровый)
Оригинальный аудиопоток: английский-Над релизом работали:
Перевод: Янина Галицкая
Озвучка: Алексей Кузнецов, Александр Фурман, Татьяна Оболевич, Юлия Котурбаш и Элайна Мэлори
Монтаж: Павел Дежин
Обложка: tvblog-Режиссер: Майкл Леманн / Michael Lehmann, Скотт Уинант / Scott Winant, Даниэль Минахан / Daniel Minahan, ...-В ролях: Анна Пакуин, Стивен Мойер, Александр Скарсгард, Сэм Траммелл, Райан Квантен, Рутина Уэсли, Кристофер Бауэр, Нелсан Эллис, Джим Пэррак, Кэрри Престон, Роберт Казински, Рутгер Хауэр, ...-Описание:
В 7 заключительном сезоне сериала «Настоящая кровь» зрителей ожидает развязка множества сюжетных линий, так и не завершенных в финальном эпизоде 6-го сезона. После неудачной попытки геноцида вампирской расы, путем добавления в настоящую кровь смертельного вируса гепатита-V, правительство сталкивается с опасными последствиями для представителей всех видов. Каждый 8-ой вампир в стране инфицирован, вот только доза, которая содержится в одной бутылке настоящей крови, не приводит к скоропостижной гибели, как в случае с Норой, вместо этого превращая существо, питающееся кровью в медленно разлагающегося зомби. Тем временем, жители Бон Темпс осваивают новый для себя вид сотрудничества с вампирами: в преддверии зомби-вампирского апокалипсиса единственный способ предотвратить массовое заражение, это соблюдать «пищевую моногамию». Вампир питается лишь одним человеком, исключительно на добровольной основе, в обмен на защиту это человека и его семьи от особей, больных гепатитом-V. Но вирус распространяется с огромной скоростью – таким образом, в 7 сезоне угроза впервые нависает не над Суки, а над теми, кто казался людям непобедимой и устрашающей силой. Люди и вампиры должны объединиться, ведь только сообща можно остановить надвигающуюся беду.-Сезон: 7
Серии: 9 из 10 серий
Продолжительность: ~ 00:50:00 мин серия-Качество видео: WEB-DLRip
Контейнер: AVI
Видео кодек: XviD
Аудио кодек: MP3
Видео: MPEG-4 Visual at 1516 Кбит/сек: 720 x 400 (1.800) at 23.976 fps: 0.22 Бит/Пиксели
Аудио Rus: MPEG Audio at 128 Кбит/сек, 2 канала, 48,0 КГц |BaibaKo|
Аудио Eng: MPEG Audio at 128 Кбит/сек, 2 канала, 48,0 КГц |Original|
Cубтитры: отсутствуют
-
-

Список серий:

  • Иисус грядёт (Jesus Gonna Be Here)
  • Я нашёл тебя (I Found You)
  • Сейчас рванёт! (Fire in the Hole)
  • Смерть - ещё не конец (Death Is Not the End)
  • Абсолютно безнадежно (Lost Cause)
  • Карма (Karma)
  • Может быть в последний раз (One Last Time)
  • Почти дома (Almost Home)
  • Любовь должна умереть (Love Is to Die)


  • Спасибо (Thank You)
-

Media Info

Общее
Полное имя                               : E:\_Сериалы\_Сериалы\Настоящая кровь\True.Blood.S07.BaibaKo\True.Blood.s07e01.WEB-DLRip.XviD.Rus.Eng.BaibaKo.tv.avi
Формат                                   : AVI
Формат/Информация                        : Audio Video Interleave
Размер файла                             : 695 Мбайт
Продолжительность                        : 50 м.
Общий поток                              : 1914 Кбит/сек
Программа кодирования                    : VirtualDubMod 1.5.10.2 (build 2540/release)
Библиотека кодирования                   : VirtualDubMod build 2540/release
Видео
Идентификатор                            : 0
Формат                                   : MPEG-4 Visual
Профиль формата                          : Advanced [email protected]
Параметр BVOP формата                    : 2
Параметр QPel формата                    : Нет
Параметр GMC формата                     : Без точки перехода
Параметр матрицы формата                 : Default (H.263)
Идентификатор кодека                     : XVID
Идентификатор кодека/Подсказка           : XviD
Продолжительность                        : 50 м.
Битрейт                                  : 1516 Кбит/сек
Ширина                                   : 720 пикселей
Высота                                   : 400 пикселей
Соотношение сторон                       : 16:9
Частота кадров                           : 23,976 кадра/сек
Цветовое пространство                    : YUV
Субдискретизация насыщенности            : 4:2:0
Битовая глубина                          : 8 бит
Тип развёртки                            : Прогрессивная
Метод сжатия                             : С потерями
Бит/(Пиксели*Кадры)                      : 0.220
Размер потока                            : 550 Мбайт (79%)
Библиотека кодирования                   : XviD 1.2.1 (UTC 2008-12-04)
Аудио #1
Идентификатор                            : 1
Формат                                   : MPEG Audio
Версия формата                           : Version 1
Профиль формата                          : Layer 3
Режим                                    : Joint stereo
Расширение режима                        : MS Stereo
Идентификатор кодека                     : 55
Идентификатор кодека/Подсказка           : MP3
Продолжительность                        : 50 м.
Вид битрейта                             : Постоянный
Битрейт                                  : 192 Кбит/сек
Каналы                                   : 2 канала
Частота                                  : 48,0 КГц
Метод сжатия                             : С потерями
Размер потока                            : 69,7 Мбайт (10%)
Выравнивание                             : Соединение по промежуткам
Продолжительность промежутка             : 42  мс. (1,00 видеокадр)
Время предзагрузки промежутка            : 504  мс.
Аудио #2
Идентификатор                            : 2
Формат                                   : MPEG Audio
Версия формата                           : Version 1
Профиль формата                          : Layer 3
Режим                                    : Joint stereo
Идентификатор кодека                     : 55
Идентификатор кодека/Подсказка           : MP3
Продолжительность                        : 50 м.
Вид битрейта                             : Постоянный
Битрейт                                  : 192 Кбит/сек
Каналы                                   : 2 канала
Частота                                  : 48,0 КГц
Метод сжатия                             : С потерями
Размер потока                            : 69,7 Мбайт (10%)
Выравнивание                             : Соединение по промежуткам
Продолжительность промежутка             : 42  мс. (1,00 видеокадр)
Время предзагрузки промежутка            : 504  мс.
-

Скриншот c названием фильма

-Скриншоты:
-

Еще

-

Внимание! Раздача ведётся путём добавления новых серий!

Раздача ведётся путём добавления новых серий; при каждом добавлении создаётся новый торрент.
Чтобы начать докачку новой серии, пользователям необходимо сделать следующее:
1. остановить скачивание,
2. удалить старый торрент у себя из клиента (старые серии удалять не надо),
3. скачать новый торрент и запустить его у себя в клиенте вместо старого, при этом указать клиенту путь в старую папку, куда и должно происходить скачивание новых серий.
Ваш клиент при этом должен произвести хеширование (проверку) старой папки (если не производит сам - помогите ему сделать это), и будет докачивать только те серии которых у вас ещё нет. Старые серии при этом не удаляются, а продолжают раздаваться!
Eсли вы уже удалили старые серии, то предотвратить повторную закачку старых серий можно, отжав галочку в соответствующих местах при запуске нового торрента. По возможности, желательно не удалять старые серии как можно дольше, чтобы релизёр не столько продолжал раздавать старые серии, а смог сконцентрироваться на новых.
Совет для тех, кто не хочет ждать перехеширования:
Создайте ещё одну папку рядом с папкой сериала (рядом, а не в ней!!!). Каждую новую серию после удачной загрузки копируйте в новую папку так чтобы ваша основная папка всегда была пуста. Когда ваш новый торрент предложит вам закачать все файлы, выберете только последнюю. Для сидирования же укажите адрес новой папки.
Как закачать отдельный файл из торрента или докачать ранее пропущенные файлы торрента!
-

Как закачать отдельный файл

1. Открыть торрент
2. Снять галки с тех файлов торрента, которые мы не хотим закачивать. Оставляем только на нужных нам файлах (файле).
3. Нажать О.К.
В клиенте utorrent
Инструкция
1) Открыть торрент

2) Снять галки с тех файлов торрента, которые мы не хотим закачивать:
* либо вручную, снимая с каждого файла галку( скрин №1)
* либо, нажав кнопку "Снять метки (Select None)", сняв сразу со всех файлов(скрин №2)
№1

№2

Оставляем только на нужных нам файлах (файле).

3)Нажать О.К
-Добавлена девятая серия седьмого сезона
Яндекс.Метрика
Рейтинг@Mail.ru