[ Сегодня на трекере фрилич! Идет свободное скачивание без начисления Download ]

Сахара / Sahara (Эндрю В. МакЛаглен / Andrew V. McLaglen) [1983 г., Приключения, драма, BDRip-AVC] AVO (Алексей Михалев, Андрей Гаврилов)

 

Создавать темы 22-Авг-2014 03:45

Сахара / Sahara
Год выпуска: 1983
Производство: Великобритания, США
Жанр: Приключения, драма
Продолжительность: 01:45:56
Перевод: Авторский (одноголосый, закадровый) Алексей Михалев
Перевод 2: Авторский (одноголосый, закадровый) Андрей Гаврилов
Субтитры: отсутствуют
Режиссер: Эндрю В. МакЛаглен / Andrew V. McLaglen
В ролях: Брук Шилдс, Ламбер Вильсон, Яаков Бен Сира, Шеер Коэн, Джозеф Би, Рольф Брин, Хорст Бухгольц, Джон Рис-Дейвис, Рональд Лэйси, Клифф Поттс, Перри Ланг, Тувиа Тави
Описание: В 1928 году прекрасная американка, наследница большого состояния, приезжает в Сахару, чтобы выполнить волю покойного отца — выиграть автогонку в пустыне. Так как к гонке допускаются только мужчины, она переодевается, ну, а затем — гонки, арабские племена, кровавые сражения, шейхи, жаждущие ее красоты…
Сэмпл , , КиноПоиск
Качество видео: BDRip-AVC
Контейнер: MKV
Видео кодек: H.264
Аудио кодек: AC3
Видео: 1072x448,23.976 fps, 2404 Kbps, 0.209 bt/px
Аудио : AC-3, 2 ch, 192 Kbps, 48 kHz Rus Михалёв
Аудио #2: AC-3, 2 ch, 192 Kbps, 48 kHz Rus Гаврилов

Доп. информация

Так как отдача маленькая (60 кб/с) раздаю до первых 3х скачавших
источником рипа послужил 720p BDRip найденный в сети!

Media Info

G:\MOVIE\Sahara.mkv
General
Unique ID : 245228814379412356004078411020074608538 (0xB87D5A07F63F08AB8AEF8B0A8E15E79A)
Complete name : G:\MOVIE\Sahara.mkv
Format : Matroska
Format version : Version 1
File size : 2.07 GiB
Duration : 1h 45mn
Overall bit rate : 2 800 Kbps
Encoded date : UTC 2014-08-20 11:52:56
Writing application : mkvmerge v2.5.3 ('Boogie') built on Mar 7 2009 15:00:41
Writing library : libebml v0.7.7 + libmatroska v0.8.1
Video #1
ID : 1
Format : AVC
Format/Info : Advanced Video Codec
Format profile : [email protected]
Format settings, CABAC : Yes
Format settings, ReFrames : 12 frames
Codec ID : V_MPEG4/ISO/AVC
Duration : 1h 45mn
Bit rate : 2 404 Kbps
Width : 1 072 pixels
Height : 448 pixels
Display aspect ratio : 2.40:1
Frame rate mode : Constant
Frame rate : 23.976 fps
Color space : YUV
Chroma subsampling : 4:2:0
Bit depth : 8 bits
Scan type : Progressive
Bits/(Pixel*Frame) : 0.209
Stream size : 1.75 GiB (84%)
Writing library : x264 core 130 r2273 b3065e6
Encoding settings : cabac=1 / ref=12 / deblock=1:-3:-3 / analyse=0x3:0x133 / me=umh / subme=11 / psy=1 / psy_rd=1.00:0.05 / mixed_ref=1 / me_range=24 / chroma_me=1 / trellis=2 / 8x8dct=1 / cqm=0 / deadzone=21,11 / fast_pskip=0 / chroma_qp_offset=-3 / threads=4 / lookahead_threads=4 / sliced_threads=0 / nr=0 / decimate=0 / interlaced=0 / bluray_compat=0 / constrained_intra=0 / bframes=8 / b_pyramid=2 / b_adapt=2 / b_bias=0 / direct=1 / weightb=1 / open_gop=0 / weightp=2 / keyint=250 / keyint_min=23 / scenecut=40 / intra_refresh=0 / rc_lookahead=40 / rc=abr / mbtree=1 / bitrate=2404 / ratetol=1.0 / qcomp=0.60 / qpmin=0 / qpmax=69 / qpstep=4 / ip_ratio=1.40 / aq=1:1.00
Language : English
Default : Yes
Forced : No
Audio #2
ID : 2
Format : AC-3
Format/Info : Audio Coding 3
Mode extension : CM (complete main)
Format settings, Endianness : Big
Codec ID : A_AC3
Duration : 1h 45mn
Bit rate mode : Constant
Bit rate : 192 Kbps
Channel(s) : 2 channels
Channel positions : Front: L R
Sampling rate : 48.0 KHz
Bit depth : 16 bits
Compression mode : Lossy
Stream size : 145 MiB (7%)
Title : AVO Михалёв
Language : Russian
Default : Yes
Forced : No
Audio #3
ID : 3
Format : AC-3
Format/Info : Audio Coding 3
Mode extension : CM (complete main)
Format settings, Endianness : Big
Codec ID : A_AC3
Duration : 1h 45mn
Bit rate mode : Constant
Bit rate : 192 Kbps
Channel(s) : 2 channels
Channel positions : Front: L R
Sampling rate : 48.0 KHz
Bit depth : 16 bits
Compression mode : Lossy
Stream size : 145 MiB (7%)
Title : AVO Гаврилов
Language : Russian
Default : No
Forced : No

Скриншоты

Яндекс.Метрика
Рейтинг@Mail.ru