[ Сегодня на трекере фрилич! Идет свободное скачивание без начисления Download ]

Уилфред / Wilfred (Сезон 4 / Полный / Серии: 10 из 10) (Рэндолл Айнхорн / Randall Einhorn, ...) [2014 г., комедия, ... WEB-DLRip] MVO (Lostfilm)

 

Создавать темы 22-Авг-2014 03:36

Уилфред / Wilfred- Русское название: Уилфред
Оригинальное название: Wilfred
Страна: США
Год выпуска: 2014
Жанр: комедия, ...-Озвучка: Студия
Перевод: Многоголосый закадровый, профессиональный-Премьера (мир): 23 июня 2011, ...
Премьера (РФ): 27 августа 2012-Режиссер: Рэндолл Айнхорн / Randall Einhorn, Виктор Нелли мл. / Victor Nelli Jr.
В главных ролях: Элайджа Вуд, Джейсон Гэнн, Фиона Габелманн, Дориан Браун, Эл Сапьенза, Рэйчел Стерлинг, Марк Энтони Лопез, Мэттью Каминский, ...-Описание фильма:
Сюжет строится вокруг молодого человека по имени Райан, который ухаживает за девушкой — хозяйкой пса по кличке Уилфред. Пес и молодой человек не нравятся друг другу с первого взгляда. Дело осложняется тем, что вместо собаки Райан видит человека в собачьем костюме, который с ним разговаривает.-Сезон: 4
Серии: 10 из 10 серий
Продолжительность: ~ 00:22:00 мин серия-Качество видео: WEB-DLRip
Формат: AVI
Видеокодек: XviD
Аудиокодек: Mp3
Видео: MPEG-4 Visual at 1503 Кбит/сек, 720 x 400 (1.800) at 23.976 fps, 0.22Бит/Пиксели
Аудио: MPEG Audio at 192 Кбит/сек, 2 канала, 48,0 КГц |Lostfilm|
- -

Список серий:

  • Искупление (Amends)
  • Последствия (Consequences)
  • Преданность (Loyalty)
  • Ответы (Answers)
  • Вперёд (Forward)
  • Шаблоны (Patterns)
  • Ответственность (Responsibility)
  • Смелость (Courage)
  • Сопротивление (Resistance)
  • Счастье (Happiness)
-

MediaInfo:

Общее
Полное имя                               : E:\_Сериалы\_NeW_\Новая папка (3)\Wilfred.S04E01.rus.LostFilm.TV.avi
Формат                                   : AVI
Формат/Информация                        : Audio Video Interleave
Размер файла                             : 264 Мбайт
Продолжительность                        : 21 м.
Режим общего битрейта                    : Переменный
Общий поток                              : 1701 Кбит/сек
Программа кодирования                    : Nandub v1.0rc2
Библиотека кодирования                   : Nandub build 1853/release
Видео
Идентификатор                            : 0
Формат                                   : MPEG-4 Visual
Профиль формата                          : Advanced [email protected]
Параметр BVOP формата                    : Нет
Параметр QPel формата                    : Нет
Параметр GMC формата                     : Без точки перехода
Параметр матрицы формата                 : Default (H.263)
Идентификатор кодека                     : XVID
Идентификатор кодека/Подсказка           : XviD
Продолжительность                        : 21 м.
Битрейт                                  : 1503 Кбит/сек
Ширина                                   : 720 пикселей
Высота                                   : 400 пикселей
Соотношение сторон                       : 16:9
Частота кадров                           : 23,976 кадра/сек
Цветовое пространство                    : YUV
Субдискретизация насыщенности            : 4:2:0
Битовая глубина                          : 8 бит
Тип развёртки                            : Прогрессивная
Метод сжатия                             : С потерями
Бит/(Пиксели*Кадры)                      : 0.218
Размер потока                            : 233 Мбайт (88%)
Библиотека кодирования                   : XviD 1.2.1 (UTC 2008-12-04)
Аудио
Идентификатор                            : 1
Формат                                   : MPEG Audio
Версия формата                           : Version 1
Профиль формата                          : Layer 3
Режим                                    : Joint stereo
Расширение режима                        : MS Stereo
Идентификатор кодека                     : 55
Идентификатор кодека/Подсказка           : MP3
Продолжительность                        : 21 м.
Вид битрейта                             : Переменный
Битрейт                                  : 192 Кбит/сек
Каналы                                   : 2 канала
Частота                                  : 48,0 КГц
Метод сжатия                             : С потерями
Размер потока                            : 28,7 Мбайт (11%)
Выравнивание                             : Соединение по промежуткам
Продолжительность промежутка             : 24  мс. (0,58 видеокадр)
Время предзагрузки промежутка            : 488  мс.
Библиотека кодирования                   : LAME3.97b
Настройки программы                      : -m j -V 4 -q 3 -lowpass 18.6 --abr 192
-

Скриншот c названием фильма

-Скриншоты:
-

Еще

-

Как закачать отдельный файл

1. Открыть торрент
2. Снять галки с тех файлов торрента, которые мы не хотим закачивать. Оставляем только на нужных нам файлах (файле).
3. Нажать О.К.
В клиенте utorrent
Инструкция
1) Открыть торрент

2) Снять галки с тех файлов торрента, которые мы не хотим закачивать:
* либо вручную, снимая с каждого файла галку( скрин №1)
* либо, нажав кнопку "Снять метки (Select None)", сняв сразу со всех файлов(скрин №2)
№1

№2

Оставляем только на нужных нам файлах (файле).

3)Нажать О.К
-Добавлена десятая, заключительная, серия четвертого сезона
Яндекс.Метрика
Рейтинг@Mail.ru