Небо падших (Валентин Донсков) [2014 г., Драма, WEBRip] (Оригинальное)

 

Создавать темы 22-Авг-2014 03:29

-Небо падших-- Производство: Россия / Народное кино
Режиссер: Валентин Донсков
Жанр: Драма
Год выпуска: 2014 г.
Продолжительность: 02:01:47
Российская премьера: 17 апреля 2014, «АКМ
В ролях: Кирилл Плетнёв, Екатерина Вилкова, Анастасия Панина, Даниил Воробьев, Александр Сирин, Александр Наумов, Егор Баринов, Владислав Ветров, Александр Печенин, Дмитрий Калистратов-Описание: Конец 1980-х. Павел Шарманов, будучи студентом авиационного института, всегда бредящий небом, начинал сторожем в музее авиации под открытым небом. Эта работа стремительно и кардинально изменила его дальнейшую жизнь. 1990-е. Перестройка. Деньги, власть, взятки, предательство друзей. Шарманов — основатель и владелец крупнейшей авиационной компании в стране. Все блага мира у его ног. Бери, что хочешь. Единственно, что недоступно успешному молодому мужчине — любовь. Он не ищет ее, но она найдет его «совсем нежданно», закрутит в лихом вихре, поднимет высоко в небеса, заставит чувствовать, парить и не придавать значения материальному… Чем выше и быстрее взлетаешь, тем быстрее и больнее падаешь. Любовь милосердна, но порой и жестока, и как любить, каждый решает сам…-Сэмпл КиноПоиск
Качество видео: WEBRip
Контейнер: AVI
Видео кодек: XviD
Аудио кодек: AC3
Видео: 720x384 (1.88:1), 24.000 fps, XviD build 50 ~1469 kbps avg, 0.22 bit/pixel
Аудио: 44.1 kHz, AC3 Dolby Digital, 2/0 (L,R) ch, ~128 kbps
Cубтитры: отсутствуют

Media Info

Общее
Полное имя : W:\Nebo.padsh1h.2014.O.WEBRip.1400MB.avi
Формат : AVI
Формат/Информация : Audio Video Interleave
Размер файла : 1,37 Гбайт
Продолжительность : 2 ч. 1 м.
Общий поток : 1607 Кбит/сек
Программа кодирования : VirtualDubMod 1.5.10.3 | www.virtualdub-fr.org || (build 2550/release)
Библиотека кодирования : VirtualDubMod build 2550/release
Видео
Идентификатор : 0
Формат : MPEG-4 Visual
Профиль формата : Advanced [email protected]
Параметр BVOP формата : 2
Параметр QPel формата : Нет
Параметр GMC формата : Без точки перехода
Параметр матрицы формата : Default (MPEG)
Идентификатор кодека : XVID
Идентификатор кодека/Подсказка : XviD
Продолжительность : 2 ч. 1 м.
Битрейт : 1469 Кбит/сек
Ширина : 720 пикс.
Высота : 384 пикс.
Соотношение сторон : 1,875
Частота кадров : 24,000 кадр/сек
Цветовое пространство : YUV
Подвыборка цветности : 4:2:0
Битовая глубина : 8 бит
Тип развёртки : Прогрессивная
Метод сжатия : С потерями
Бит/(Пиксели*Кадры) : 0.221
Размер потока : 1,25 Гбайт (91%)
Библиотека кодирования : XviD 1.2.1 (UTC 2008-12-04)
Аудио
Идентификатор : 1
Формат : AC-3
Формат/Информация : Audio Coding 3
Расширение режима : CM (complete main)
Идентификатор кодека : 2000
Продолжительность : 2 ч. 1 м.
Вид битрейта : Постоянный
Битрейт : 128 Кбит/сек
Канал(ы) : 2 канала(ов)
Расположение каналов : Front: L R
Частота : 44,1 КГц
Битовая глубина : 16 бит
Метод сжатия : С потерями
Размер потока : 112 Мбайт (8%)
Выравнивание : Разделение по промежуткам
Продолжительность промежутка : 42 мс. (1,00 видеокадр)
Время предзагрузки промежутка : 500 ms

Скриншоты

Яндекс.Метрика
Рейтинг@Mail.ru