Другая женщина / The Other Woman (Ник Кассаветис / Nick Cassavetes) [2014 г., Мелодрама, комедия, BDRip] Dub (Лицензия) + Original (Eng)

 

Создавать темы 22-Авг-2014 03:16

-Другая женщина / The Other Woman- Производство: США / 20th Century Fox Film Corporation, LBI Productions
Год выпуска: 2014 г.
Жанр: Мелодрама, комедия
Продолжительность: 01:49:13
Мировая премьера: 1 апреля 2014
Российская премьера: 1 мая 2014, «Двадцатый Век Фокс СНГ»
Дата выхода DVD: 11 сентября 2014, «Двадцатый Век Фокс СНГ»
Дата выхода Blu-Ray: 11 сентября 2014, «Двадцатый Век Фокс СНГ»
Перевод: Профессиональный (полное дублирование) [Лицензия Blu-Ray EUR]
Оригинальный аудиопоток: английский-Режиссер: Ник Кассаветис / Nick Cassavetes
В ролях: Кэмерон Диаз, Лесли Манн, Кейт Аптон, Николай Костер-Вальдау, Дон Джонсон, Тейлор Кинни, Ники Минаж, Дэвид Торнтон, Виктор Круз, Оливия Калпо-Описание: Любовная связь с женатым мужчиной — это, конечно, не лучший вариант, но вполне допустимый. Гораздо хуже, если у него помимо тебя ещё несколько любовниц. Будучи не в силах смириться с таким положением дел, обманутая женщина жаждет крови и вынашивает план мести. Ради достижения своей цели она объединяется с женой изменника, и этот союз униженных и оскорблённых оказывается для казановы пострашнее атомной войны.- -Качество видео: BDRip
Контейнер: AVI
Видео кодек: XviD
Аудио кодек: AC3
Видео: 720x304 (2.37:1), 23.976 fps, XviD build 65 ~1959 kbps avg, 0.37 bit/pixel
Аудио: 48 kHz, AC3 Dolby Digital, 3/2 (L,C,R,l,r) + LFE ch, ~448 kbps [Rus]
Аудио #2: 48 kHz, AC3 Dolby Digital, 3/2 (L,C,R,l,r) + LFE ch, ~448 kbps [Eng]
Cубтитры: отсутствуют

Media Info

General
Complete name : D:\Drugaya.zhenschina.2014.DUAL.BDRip.avi
Format : AVI
Format/Info : Audio Video Interleave
Format profile : OpenDML
File size : 2.18 GiB
Duration : 1h 49mn
Overall bit rate : 2 862 Kbps
Writing application : VirtualDubMod 1.5.10.2 (build 2542/release)
Comment : 21.08.2014
Video
ID : 0
Format : MPEG-4 Visual
Format profile : Advanced [email protected]
Format settings, BVOP : 1
Format settings, QPel : No
Format settings, GMC : No warppoints
Format settings, Matrix : Custom
Codec ID : XVID
Codec ID/Hint : XviD
Duration : 1h 49mn
Bit rate : 1 948 Kbps
Width : 720 pixels
Height : 304 pixels
Display aspect ratio : 2.35:1
Frame rate : 23.976 fps
Color space : YUV
Chroma subsampling : 4:2:0
Bit depth : 8 bits
Scan type : Progressive
Compression mode : Lossy
Bits/(Pixel*Frame) : 0.371
Stream size : 1.49 GiB (68%)
Writing library : XviD 65
Audio #1
ID : 1
Format : AC-3
Format/Info : Audio Coding 3
Mode extension : CM (complete main)
Format settings, Endianness : Big
Codec ID : 2000
Duration : 1h 49mn
Bit rate mode : Constant
Bit rate : 448 Kbps
Channel(s) : 6 channels
Channel positions : Front: L C R, Side: L R, LFE
Sampling rate : 48.0 KHz
Bit depth : 16 bits
Compression mode : Lossy
Stream size : 350 MiB (16%)
Alignment : Split accross interleaves
Interleave, duration : 42 ms (1.00 video frame)
Interleave, preload duration : 500 ms
Audio #2
ID : 2
Format : AC-3
Format/Info : Audio Coding 3
Mode extension : CM (complete main)
Format settings, Endianness : Big
Codec ID : 2000
Duration : 1h 49mn
Bit rate mode : Constant
Bit rate : 448 Kbps
Channel(s) : 6 channels
Channel positions : Front: L C R, Side: L R, LFE
Sampling rate : 48.0 KHz
Bit depth : 16 bits
Compression mode : Lossy
Stream size : 350 MiB (16%)
Alignment : Split accross interleaves
Interleave, duration : 42 ms (1.00 video frame)
Interleave, preload duration : 500 ms

Скриншоты

Яндекс.Метрика
Рейтинг@Mail.ru